迈图娱乐平台中国论坛

查看: 175528|回复: 7953
打印 上一主题 下一主题

[迈图娱乐平台] 长虹CHIQ 迈图娱乐平台演示片:日本北海道花海迈图娱乐平台(H.265编码版)富良野花田景色【1.4G/百度】

  [复制链接]
跳转到指定楼层
1楼(楼主)
发表于 2015-4-28 15:11:38 | 只看该作者 回帖奖励 |倒序浏览 |阅读模式
长虹CHIQ 迈图娱乐平台演示片:日本北海道花海迈图娱乐平台(H.265编码版)富良野花田景色【1.4G/百度】
长虹CHIQ 迈图娱乐平台演示片:日本北海道花海迈图娱乐平台(H.265编码版)富良野花田景色【1.4G/百度】
长虹CHIQ 迈图娱乐平台演示片:日本北海道花海迈图娱乐平台(H.265编码版)富良野花田景色【1.4G/百度】
长虹CHIQ 迈图娱乐平台演示片:日本北海道花海迈图娱乐平台(H.265编码版)富良野花田景色【1.4G/百度】
长虹CHIQ 迈图娱乐平台演示片:日本北海道花海迈图娱乐平台(H.265编码版)富良野花田景色【1.4G/百度】
长虹CHIQ 迈图娱乐平台演示片:日本北海道花海迈图娱乐平台(H.265编码版)富良野花田景色【1.4G/百度】


视频参数:
Format                            : HEVC
Format/Info                    : High Efficiency Video Coding
Duration                         : 4mn 40s
Bit rate                            : 43.0 Mbps
Width                              : 3 840 pixels
Height                             : 2 160 pixels
Display aspect ratio        : 16:9
Frame rate mode            : Constant
Frame rate                       : 29.970 fps
Standard                         : Component
Color space                     : YUV
Chroma subsampling     : 4:2:0
Bit depth                         : 8 bits
Bits/(Pixel*Frame)           : 0.173
Stream size                      : 1.41 GiB (99%)

音频参数:
Format                            : AAC
Format/Info                    : Advanced Audio Codec
Format profile                : LC
Codec ID                         : 40
Duration                         : 4mn 40s
Bit rate mode                 : Variable
Bit rate                            : 445 Kbps
Maximum bit rate          : 576 Kbps
Channel(s)                      : 2 channels
Channel positions          : Front: L R
Sampling rate                 : 48.0 KHz
Compression mode        : Lossy
Stream size                     : 14.9 MiB (1%)



景色简介:

    富良野市是北海道上川支厅辖区内南部的一个城市,是北海道内知名的观光城市。曾经为日剧《来自北国》(北の国から)的故事地点。富良野盆地由火山爆发冲积而成的平原与丘陵。周围有大雪群峰,树海和河流。而其阿依努语的“臭气熏天的炎焰”,原因是流经富良野的河流从上游流下来,水含硫磺臭气。经过百年的开发,当地人起名“富良”,喻为丰饶的大地,气候四季分明,农业牧业发达,也是观光旅游名胜。




相对H.264版本容量小了一半多。而且画质保留了下来。来体验一下HEVC/H.265编码的神奇吧!

百度盘:
游客,如果您要查看本帖隐藏内容请回复

原文(出自:HD.Club精研事务所
收藏收藏9 转播转播 分享淘帖 赞 踩
回复

使用道具 举报

来自 5#
 楼主| 发表于 2015-4-28 15:15:46 | 只看该作者
回复 支持 反对

使用道具 举报

2楼(沙发)
发表于 2015-4-28 15:12:45 | 只看该作者
谢谢分享好资源!
回复 支持 反对

使用道具 举报

3楼(板凳)
发表于 2015-4-28 15:15:08 | 只看该作者
感谢分享
回复

使用道具 举报

4楼(地板)
发表于 2015-4-28 15:15:32 | 只看该作者
谢谢分享,资源非常好
回复 支持 反对

使用道具 举报

6楼
发表于 2015-4-28 15:58:18 | 只看该作者
新手前来学习迈图娱乐平台
回复 支持 反对

使用道具 举报

7楼
发表于 2015-4-28 16:08:02 | 只看该作者
高大上,支持下
回复 支持 反对

使用道具 举报

8楼
发表于 2015-4-28 20:00:11 | 只看该作者
新手前来学习迈图娱乐平台
回复 支持 反对

使用道具 举报

9楼
发表于 2015-4-28 21:35:16 | 只看该作者
真是难得给力的资源啊。
回复 支持 反对

使用道具 举报

10楼
发表于 2015-4-28 21:40:46 | 只看该作者
日本北海道花海迈图娱乐平台(H.265编码版)富良野花田景色
回复 支持 反对

使用道具 举报

您需要登录后才可以回帖 登录 | 注册

本版积分规则

手机版|迈图娱乐平台知识百科|小黑屋|标签|Sitemap|联系我们|Archiver| 迈图娱乐平台中国论坛  

Copyright © 2013-2017 Comsenz Inc.   All Rights Reserved.

Powered by Discuz! X3.1