www.tlcwine.com中国论坛

查看: 11242|回复: 1384
打印 上一主题 下一主题

[www.tlcwine.com] 索尼 BRAVIA OLED A1 www.tlcwine.com HDR 演示片 - Food Fizzle (HEVC 60fps 10bit)[2160P/MP4/...

[复制链接]
跳转到指定楼层
1楼(楼主)
发表于 2017-9-21 06:36:19 | 只看该作者 回帖奖励 |倒序浏览 |阅读模式
索尼 BRAVIA OLED A1 www.tlcwine.com HDR 演示片 - Food Fizzle (HEVC 60fps 10bit)[2160P/MP4/726MB]
(OLED电视专用www.tlcwine.com演示片)
索尼 BRAVIA OLED A1 www.tlcwine.com HDR 演示片 - Food Fizzle (HEVC 60fps 10bit)[2160P/MP4/... 索尼 BRAVIA OLED A1 www.tlcwine.com HDR 演示片 - Food Fizzle (HEVC 60fps 10bit)[2160P/MP4/... 索尼 BRAVIA OLED A1 www.tlcwine.com HDR 演示片 - Food Fizzle (HEVC 60fps 10bit)[2160P/MP4/... 索尼 BRAVIA OLED A1 www.tlcwine.com HDR 演示片 - Food Fizzle (HEVC 60fps 10bit)[2160P/MP4/... 索尼 BRAVIA OLED A1 www.tlcwine.com HDR 演示片 - Food Fizzle (HEVC 60fps 10bit)[2160P/MP4/... 索尼 BRAVIA OLED A1 www.tlcwine.com HDR 演示片 - Food Fizzle (HEVC 60fps 10bit)[2160P/MP4/... 索尼 BRAVIA OLED A1 www.tlcwine.com HDR 演示片 - Food Fizzle (HEVC 60fps 10bit)[2160P/MP4/... 索尼 BRAVIA OLED A1 www.tlcwine.com HDR 演示片 - Food Fizzle (HEVC 60fps 10bit)[2160P/MP4/... 索尼 BRAVIA OLED A1 www.tlcwine.com HDR 演示片 - Food Fizzle (HEVC 60fps 10bit)[2160P/MP4/... 索尼 BRAVIA OLED A1 www.tlcwine.com HDR 演示片 - Food Fizzle (HEVC 60fps 10bit)[2160P/MP4/... 索尼 BRAVIA OLED A1 www.tlcwine.com HDR 演示片 - Food Fizzle (HEVC 60fps 10bit)[2160P/MP4/... 索尼 BRAVIA OLED A1 www.tlcwine.com HDR 演示片 - Food Fizzle (HEVC 60fps 10bit)[2160P/MP4/... 索尼 BRAVIA OLED A1 www.tlcwine.com HDR 演示片 - Food Fizzle (HEVC 60fps 10bit)[2160P/MP4/...

General
Complete name : SONY.BRAVIA.OLED.www.tlcwine.com.HDR.DEMO_Food .Fizzle.mp4
Format : MPEG-4
Format profile : Base Media / Version 2
Codec ID : mp42 (mp42/iso4)
File size : 726 MiB
Duration : 1 min 22 s
Overall bit rate : 74.2 Mbps
Encoded date : UTC 2017-02-27 02:06:58
Tagged date : UTC 2017-02-27 02:06:58

Video
ID : 1
Format : HEVC
Format/Info : High Efficiency Video Coding
Format profile : Main 10@L5.1@High
Codec ID : hvc1
Codec ID/Info : High Efficiency Video Coding
Duration : 1 min 22 s
Bit rate : 74.0 Mbps
Width : 3840 pixels
Height : 2160 pixels
Display aspect ratio : 16:9
Frame rate mode : Constant
Frame rate : 59.940 (60000/1001) FPS
Color space : YUV
Chroma subsampling : 4:2:0 (Type 2)
Bit depth : 10 bits
Bits/(Pixel*Frame) : 0.149
Stream size : 725 MiB (100%)
Encoded date : UTC 2017-02-27 02:06:58
Tagged date : UTC 2017-02-27 02:06:58
Color range : Limited
Color primaries : BT.2020
Transfer characteristics : SMPTE ST 2084
Matrix coefficients : BT.2020 non-constant
Mastering display color primar : R: x=1.000000 y=1.000000, G: x=1.000000 y=1.000000, B: x=1.000000 y=1.000000, White point: x=1.000000 y=1.000000
Mastering display luminance : min: 0.1000 cd/m2, max: 0.5000 cd/m2

Audio
ID : 2
Format : AAC
Format/Info : Advanced Audio Codec
Format profile : LC
Codec ID : 40
Duration : 1 min 22 s
Bit rate mode : Constant
Bit rate : 192 kbps
Channel(s) : 2 channels
Channel positions : Front: L R
Sampling rate : 48.0 kHz
Frame rate : 46.875 FPS (1024 SPF)
Compression mode : Lossy
Stream size : 1.88 MiB (0%)
Language : English
Encoded date : UTC 2017-02-27 02:06:58
Tagged date : UTC 2017-02-27 02:06:58
Demo Ultra HD & HDR (HDR10)by Sony(for Sony OLED A1 Demo)
HDR ! So your TV has to be able to play this format !
OLED
www.tlcwine.com HDR电视上观看才能体验最佳效果!
播放器 : Potplaye(2017版本)

MP4百度云盘
游客,如果您要查看本帖隐藏内容请回复


收藏收藏7 转播转播 分享淘帖 赞 踩
回复

使用道具 举报

2楼(沙发)
发表于 2017-9-21 07:11:17 | 只看该作者
支持楼主,www.tlcwine.com123有你更精彩!
回复 支持 反对

使用道具 举报

3楼(板凳)
发表于 2017-9-21 07:18:22 | 只看该作者
支持楼主,www.tlcwine.com123有你更精彩!
回复 支持 反对

使用道具 举报

4楼(地板)
发表于 2017-9-21 07:42:36 | 只看该作者
很不错的。。。。。。。。。。。。。。
回复

使用道具 举报

5楼
发表于 2017-9-21 07:47:57 | 只看该作者
太好啦!谢谢版主的无私分享!
回复 支持 反对

使用道具 举报

6楼
发表于 2017-9-21 08:07:56 | 只看该作者
看着好有胃口,谢谢分享。
回复 支持 反对

使用道具 举报

7楼
发表于 2017-9-21 08:10:03 | 只看该作者
谢谢分享。
回复

使用道具 举报

8楼
发表于 2017-9-21 08:12:36 | 只看该作者
感谢楼主分享!
回复 支持 反对

使用道具 举报

9楼
发表于 2017-9-21 08:13:14 | 只看该作者
支持楼主,www.tlcwine.com123有你更精彩!
回复 支持 反对

使用道具 举报

10楼
发表于 2017-9-21 08:19:21 | 只看该作者
谢谢分享。
回复

使用道具 举报

您需要登录后才可以回帖 登录 | 注册

本版积分规则

手机版|www.tlcwine.com知识百科|小黑屋|标签|Sitemap|联系我们|Archiver| www.tlcwine.com中国论坛  

Copyright © 2013-2017 Comsenz Inc.   All Rights Reserved.

Powered by Discuz! X3.1