www.tlcwine.com中国论坛

查看: 14888|回复: 2108
打印 上一主题 下一主题

[www.tlcwine.com] 索尼 www.tlcwine.com 演示片 - 烟花 (高码率) [2160P/MKV/546MB]

[复制链接]
跳转到指定楼层
1楼(楼主)
发表于 2017-8-26 12:26:31 | 只看该作者 回帖奖励 |倒序浏览 |阅读模式
索尼 www.tlcwine.com 演示片 - 烟花 (高码率) [2160P/MKV/546MB] 索尼 www.tlcwine.com 演示片 - 烟花 (高码率) [2160P/MKV/546MB] 索尼 www.tlcwine.com 演示片 - 烟花 (高码率) [2160P/MKV/546MB] 索尼 www.tlcwine.com 演示片 - 烟花 (高码率) [2160P/MKV/546MB] 索尼 www.tlcwine.com 演示片 - 烟花 (高码率) [2160P/MKV/546MB] 索尼 www.tlcwine.com 演示片 - 烟花 (高码率) [2160P/MKV/546MB] 索尼 www.tlcwine.com 演示片 - 烟花 (高码率) [2160P/MKV/546MB] 索尼 www.tlcwine.com 演示片 - 烟花 (高码率) [2160P/MKV/546MB] 索尼 www.tlcwine.com 演示片 - 烟花 (高码率) [2160P/MKV/546MB] 索尼 www.tlcwine.com 演示片 - 烟花 (高码率) [2160P/MKV/546MB]

General
Unique ID : 205924609896406910333003771986869806145 (0x9AEBA322B8FD2205BD998BDBD14CE441)
Complete name : SONY.www.tlcwine.com.DEMO_Fireworks.mkv
Format : Matroska
Format version : Version 4 / Version 2
File size : 546 MiB
Duration : 1 min 37 s
Overall bit rate : 46.8 Mbps
Encoded date : UTC 2016-04-10 09:16:32
Writing application : mkvmerge v9.0.1 ('Obstacles') 64bit
Writing library : libebml v1.3.3 + libmatroska v1.4.4

Video
ID : 1
Format : AVC
Format/Info : Advanced Video Codec
Format profile : High@L5.1
Format settings, CABAC : Yes
Format settings, RefFrames : 4 frames
Codec ID : V_MPEG4/ISO/AVC
Duration : 1 min 37 s
Bit rate : 45.6 Mbps
Width : 3840 pixels
Height : 2160 pixels
Display aspect ratio : 16:9
Frame rate mode : Constant
Frame rate : 29.970 (30000/1001) FPS
Color space : YUV
Chroma subsampling : 4:2:0
Bit depth : 8 bits
Scan type : Progressive
Bits/(Pixel*Frame) : 0.184
Stream size : 533 MiB (98%)
Writing library : x264 core 142 r2479 dd79a61
Encoding settings : cabac=1 / ref=4 / deblock=1:-1:-1 / analyse=0x3:0x113 / me=umh / subme=10 / psy=1 / psy_rd=1.00:0.15 / mixed_ref=1 / me_range=24 / chroma_me=1 / trellis=2 / 8x8dct=1 / cqm=0 / deadzone=21,11 / fast_pskip=1 / chroma_qp_offset=-3 / threads=12 / lookahead_threads=1 / sliced_threads=0 / nr=0 / decimate=1 / interlaced=0 / bluray_compat=0 / constrained_intra=0 / bframes=3 / b_pyramid=2 / b_adapt=2 / b_bias=0 / direct=1 / weightb=1 / open_gop=0 / weightp=2 / keyint=300 / keyint_min=30 / scenecut=40 / intra_refresh=0 / rc_lookahead=60 / rc=crf / mbtree=1 / crf=15.0 / qcomp=0.60 / qpmin=0 / qpmax=69 / qpstep=4 / vbv_maxrate=50000 / vbv_bufsize=60000 / crf_max=0.0 / nal_hrd=none / filler=0 / ip_ratio=1.40 / aq=1:1.00
Language : English
Default : Yes
Forced : No
Color range : Limited
Color primaries : BT.709
Transfer characteristics : BT.709
Matrix coefficients : BT.709

Audio
ID : 2
Format : AC-3
Format/Info : Audio Coding 3
Format settings, Endianness : Big
Codec ID : A_AC3
Duration : 1 min 37 s
Bit rate mode : Constant
Bit rate : 224 kb/s
Channel(s) : 2 channels
Channel positions : Front: L R
Sampling rate : 48.0 kHz
Frame rate : 31.250 FPS (1536 SPF)
Bit depth : 16 bits
Compression mode : Lossy
Delay relative to video : -5 ms
Stream size : 2.61 MiB (0%)
Language : English
Service kind : Complete Main
Default : Yes
Forced : No
播放器 : Potplaye/MPC-HC
建议在大屏幕电视上观看才能体验最佳效果

MKV百度云盘

游客,如果您要查看本帖隐藏内容请回复




收藏收藏3 转播转播 分享淘帖 赞 踩
回复

使用道具 举报

2楼(沙发)
发表于 2017-8-26 12:31:02 | 只看该作者
太漂亮了!
回复

使用道具 举报

3楼(板凳)
发表于 2017-8-26 13:20:45 | 只看该作者
66666666666
回复 支持 反对

使用道具 举报

4楼(地板)
发表于 2017-8-26 13:25:52 | 只看该作者
谢谢分享
回复

使用道具 举报

5楼
发表于 2017-8-26 13:38:35 | 只看该作者
太漂亮了!
回复

使用道具 举报

6楼
发表于 2017-8-26 13:53:17 | 只看该作者
谢谢分享
回复

使用道具 举报

7楼
发表于 2017-8-26 13:58:09 | 只看该作者
卡卡卡卡卡,看看啊  !
回复 支持 反对

使用道具 举报

8楼
发表于 2017-8-26 14:06:40 | 只看该作者
啊啊啊啊啊啊啊啊
回复 支持 反对

使用道具 举报

9楼
发表于 2017-8-26 14:07:11 | 只看该作者
支持楼主,www.tlcwine.com123有你更精彩!
回复 支持 反对

使用道具 举报

10楼
发表于 2017-8-26 14:11:04 | 只看该作者
眼花缭乱。
回复

使用道具 举报

您需要登录后才可以回帖 登录 | 注册

本版积分规则

手机版|www.tlcwine.com知识百科|小黑屋|标签|Sitemap|联系我们|Archiver| www.tlcwine.com中国论坛  

Copyright © 2013-2017 Comsenz Inc.   All Rights Reserved.

Powered by Discuz! X3.1