www.tlcwine.com中国论坛

查看: 22121|回复: 2779

[www.tlcwine.com电影] 【魔兽 www.tlcwine.com+HDR版】全景声音轨 Warcraft (2016) 2160p www.tlcwine.com UltraHD BluRay [57G]

[复制链接]
发表于 2017-7-19 13:52:21 | 显示全部楼层 |阅读模式
【魔兽 www.tlcwine.com+HDR版】全景声音轨 Warcraft (2016) 2160p www.tlcwine.com UltraHD BluRay [57G]


【魔兽 www.tlcwine.com+HDR版】全景声音轨 Warcraft (2016) 2160p www.tlcwine.com UltraHD BluRay [57G]

这是一个人类和兽人共存,和谐相处,互不侵犯的世界。人类生活在艾泽拉斯大陆中,兽人则在德拉诺劳作繁衍。某日,邪恶的兽人古尔丹(吴彦祖 饰)出现了,它打开了黑暗之门,肆意屠戮手无寸铁的人类,将艾泽拉斯大陆变为了一片地狱的火海。与此同时,曾经与世无争的兽人们如今变得凶猛残暴,他们来到人类的领地,在这里烧杀抢掠,无恶不作。

杜隆坦(托比·凯贝尔 Toby Kebbell 饰)是霜狼氏族的酋长,他发现了古尔丹的野心和阴谋,于是带领着自己的部族千里迢迢来到了艾泽拉斯,在此处,人类领袖洛萨(崔维斯·费米尔 Travis Fimmel 饰)亦在寻找结束战争的两全之道。

  1. General
  2. Format                         : Matroska
  3. Format version                 : Version 4 / Version 2
  4. File size                      : 57.2 GiB
  5. Duration                       : 2 h 3 min
  6. Overall bit rate mode          : Variable
  7. Overall bit rate               : 66.5 Mb/s
  8. Encoded date                   : UTC 2016-10-09 22:46:24
  9. Writing application            : mkvmerge v9.4.2 ('So High') 64bit
  10. Writing library                : libebml v1.3.4 + libmatroska v1.4.5


  11. Video
  12. ID                             : 1
  13. Format                         : HEVC
  14. Format/Info                    : High Efficiency Video Coding
  15. Format profile                 : Main [email protected]@High
  16. Codec ID                       : V_MPEGH/ISO/HEVC
  17. Duration                       : 2 h 3 min
  18. Bit rate                       : 61.0 Mb/s
  19. Width                          : 3 840 pixels
  20. Height                         : 2 160 pixels
  21. Display aspect ratio           : 16:9
  22. Frame rate mode                : Constant
  23. Frame rate                     : 23.976 (24000/1001) FPS
  24. Color space                    : YUV
  25. Chroma subsampling             : 4:2:0
  26. Bit depth                      : 10 bits
  27. Bits/(Pixel*Frame)             : 0.307
  28. Stream size                    : 52.5 GiB (92%)
  29. Writing library                : x265 2.0+18-b0ec268aef60:[Windows][GCC 6.1.0][64 bit] 10bit
  30. Encoding settings              : wpp / ctu=64 / min-cu-size=8 / max-tu-size=32 / tu-intra-depth=1 / tu-inter-depth=1 / me=1 / subme=2 / merange=57 / no-rect / no-amp / max-merge=2 / temporal-mvp / no-early-skip / rskip / rdpenalty=0 / no-tskip / no-tskip-fast / strong-intra-smoothing / no-lossless / no-cu-lossless / no-constrained-intra / no-fast-intra / open-gop / no-temporal-layers / interlace=0 / keyint=250 / min-keyint=23 / scenecut=40 / rc-lookahead=20 / lookahead-slices=8 / bframes=4 / bframe-bias=0 / b-adapt=2 / ref=3 / limit-refs=3 / no-limit-modes / weightp / no-weightb / aq-mode=1 / qg-size=32 / aq-strength=1.00 / cbqpoffs=0 / crqpoffs=0 / rd=3 / psy-rd=2.00 / rdoq-level=0 / psy-rdoq=0.00 / log2-max-poc-lsb=8 / no-rd-refine / signhide / deblock=0:0 / sao / no-sao-non-deblock / b-pyramid / cutree / no-intra-refresh / rc=abr / bitrate=61000 / qcomp=0.60 / qpmin=0 / qpmax=69 / qpstep=4 / vbv-maxrate=160000 / vbv-bufsize=160000 / ipratio=1.40 / pbratio=1.30
  31. Default                        : Yes
  32. Forced                         : No
  33. Color range                    : Limited
  34. Color primaries                : BT.2020
  35. Transfer characteristics       : SMPTE ST 2084
  36. Matrix coefficients            : BT.2020 non-constant
  37. Mastering display color primar : R: x=0.680000 y=0.320000, G: x=0.265000 y=0.690000, B: x=0.150000 y=0.060000, White point: x=0.312700 y=0.329000
  38. Mastering display luminance    : min: 0.0001 cd/m2, max: 1000.0000 cd/m2
  39. Maximum Content Light Level    : 1000 cd/m2
  40. Maximum Frame-Average Light Le : 500 cd/m2


  41. Audio #1
  42. ID                             : 2
  43. Format                         : Atmos / TrueHD
  44. Codec ID                       : A_TRUEHD
  45. Duration                       : 2 h 3 min
  46. Bit rate mode                  : Variable
  47. Bit rate                       : 4 834 kb/s
  48. Maximum bit rate               : 7 893 kb/s
  49. Channel(s)                     : Object Based / 8 channels
  50. Channel positions              : Object Based / Front: L C R, Side: L R, Back: L R, LFE
  51. Sampling rate                  :  / 48.0 kHz
  52. Frame rate                     : 1 200.000 FPS (40 spf)
  53. Compression mode               : Lossless
  54. Stream size                    : 4.16 GiB (7%)
  55. Language                       : English
  56. Default                        : Yes
  57. Forced                         : No


  58. Audio #2
  59. ID                             : 3
  60. Format                         : AC-3
  61. Format/Info                    : Audio Coding 3
  62. Mode extension                 : CM (complete main)
  63. Format settings, Endianness    : Big
  64. Codec ID                       : A_AC3
  65. Duration                       : 2 h 3 min
  66. Bit rate mode                  : Constant
  67. Bit rate                       : 640 kb/s
  68. Channel(s)                     : 6 channels
  69. Channel positions              : Front: L C R, Side: L R, LFE
  70. Sampling rate                  : 48.0 kHz
  71. Frame rate                     : 31.250 FPS (1536 spf)
  72. Bit depth                      : 16 bits
  73. Compression mode               : Lossy
  74. Stream size                    : 564 MiB (1%)
  75. Language                       : English
  76. Default                        : No
  77. Forced                         : No
复制代码


【魔兽 www.tlcwine.com+HDR版】全景声音轨 Warcraft (2016) 2160p www.tlcwine.com UltraHD BluRay [57G]
【魔兽 www.tlcwine.com+HDR版】全景声音轨 Warcraft (2016) 2160p www.tlcwine.com UltraHD BluRay [57G]
【魔兽 www.tlcwine.com+HDR版】全景声音轨 Warcraft (2016) 2160p www.tlcwine.com UltraHD BluRay [57G]


www.tlcwine.com HDR版本(全景声):Warcraft.2016.UltraHD.BluRay.2160p.HEVC.BT2020.TrueHD 7.1.Atmos-HDLeader
游客,如果您要查看本帖隐藏内容请回复


www.tlcwine.com版本:Warcraft (2016) 2160p www.tlcwine.com UltraHD BluRay (x265 HEVC 10bit) 2CH AC3
游客,如果您要查看本帖隐藏内容请回复


TV应用下载
回复

使用道具 举报

发表于 2017-7-19 14:00:54 | 显示全部楼层
谢谢分享,支持楼主发帖
回复 支持 反对

使用道具 举报

发表于 2017-7-19 14:13:51 | 显示全部楼层
支持楼主,www.tlcwine.com123有你更精彩!
回复 支持 反对

使用道具 举报

发表于 2017-7-19 14:20:28 | 显示全部楼层
非常不错感谢分享
回复 支持 反对

使用道具 举报

发表于 2017-7-19 14:22:43 | 显示全部楼层
真是难得给力的资源啊。
回复 支持 反对

使用道具 举报

发表于 2017-7-19 14:27:46 | 显示全部楼层
谢谢分享,支持楼主发帖
回复 支持 反对

使用道具 举报

发表于 2017-7-19 14:32:21 | 显示全部楼层
又是涨姿势了
回复 支持 反对

使用道具 举报

发表于 2017-7-19 14:57:24 | 显示全部楼层
哎呦,不错哟
回复 支持 反对

使用道具 举报

发表于 2017-7-19 14:59:21 | 显示全部楼层
i没速度怎么办 啊!!!
回复 支持 反对

使用道具 举报

发表于 2017-7-19 15:00:55 | 显示全部楼层
支持楼主,www.tlcwine.com123有你更精彩!
回复 支持 反对

使用道具 举报

您需要登录后才可以回帖 登录 | 注册

本版积分规则

手机版|www.tlcwine.com知识百科|小黑屋|标签|Sitemap|联系我们|Archiver| www.tlcwine.com中国论坛  

Copyright © 2013-2017 Comsenz Inc.   All Rights Reserved.

Powered by Discuz! X3.1