www.tlcwine.com中国论坛

查看: 18172|回复: 2354
打印 上一主题 下一主题

[www.tlcwine.com电影] www.tlcwine.com电影【独立日2:卷土重来】Resurgence(2016) 2160p UHD BluRay HEVC 10bit[50G]

[复制链接]
跳转到指定楼层
1楼(楼主)
发表于 2017-7-19 11:28:37 | 只看该作者 回帖奖励 |倒序浏览 |阅读模式
www.tlcwine.com电影【独立日2:卷土重来】Resurgence(2016) 2160p UHD BluRay HEVC 10bit[50G]
www.tlcwine.com电影【独立日2:卷土重来】Resurgence(2016) 2160p UHD BluRay HEVC 10bit[50G]


独立日2:卷土重来规格:
www.tlcwine.com UHD+蓝光+数字高清
www.tlcwine.com*6K拍摄规格
VFX渲染在2K
数字分辨率www.tlcwine.com

www.tlcwine.com电影【独立日2:卷土重来】Resurgence(2016) 2160p UHD BluRay HEVC 10bit[50G]


经历过外星人大举入侵地球后,人类知道,这些入侵者有一天一定会再回来。人类运用先前外星人所遗留下来的科技文明,发展出一套强大的地球防御系统以抵御外星人的再度入侵。然而,20年后,这些外星人却带着人类前所未见、更先进强大的武力再次入侵地球,带来更大的全球灾难,几位勇敢的年轻人,他们挺身而出,将再一次为人类生存而战斗。

www.tlcwine.com电影【独立日2:卷土重来】Resurgence(2016) 2160p UHD BluRay HEVC 10bit[50G]
www.tlcwine.com电影【独立日2:卷土重来】Resurgence(2016) 2160p UHD BluRay HEVC 10bit[50G]
www.tlcwine.com电影【独立日2:卷土重来】Resurgence(2016) 2160p UHD BluRay HEVC 10bit[50G]


Independence Day: Resurgence (2016) 2160p www.tlcwine.com UltraHD BluRay (x265 HEVC 10bit) 2CH AC3
www.tlcwine.com电影【独立日2:卷土重来】Resurgence(2016) 2160p www.tlcwine.com UHD BluRay HEVC 10bit[50G]
Format                                   : Matroska
Format version                           : Version 2
File size                                : 50.5 GiB
Duration                                 : 2h 0mn
Overall bit rate                         : 60.2 Mbps
Encoded date                             : UTC 2016-11-25T00:11:38Z
Writing application                      : HandBrake 20160604111422-9206444-master 2016060501
Writing library                          : Lavf56.1.0 / Lavf56.1.0

Video
ID                                       : 1
Format                                   : HEVC
Format/Info                              : High Efficiency Video Coding
Format profile                           : Main [email protected]@Main
Codec ID                                 : V_MPEGH/ISO/HEVC
Duration                                 : 2h 0mn
Bit rate                                 : 58.4 Mbps
Width                                    : 3 840 pixels
Height                                   : 2 160 pixels
Display aspect ratio                     : 16:9
Frame rate mode                          : Constant
Frame rate                               : 23.976 (24000/1001) fps
Color space                              : YUV
Chroma subsampling                       : 4:2:0
Bit depth                                : 10 bits
Bits/(Pixel*Frame)                       : 0.294
Stream size                              : 48.9 GiB (97%)
Writing library                          : x265 1.9+3-63308f7658c3:[Windows][GCC 5.2.0][64 bit] 10bit
Default                                  : Yes
Forced                                   : No
Color range                              : Limited
Color primaries                          : BT.709
Transfer characteristics                 : BT.709
Matrix coefficients                      : BT.601

Audio
ID                                       : 2
Format                                   : AC-3
Format/Info                              : Audio Coding 3
Mode extension                           : CM (complete main)
Format settings, Endianness              : Big
Codec ID                                 : A_AC3
Duration                                 : 2h 0mn
Bit rate mode                            : Constant
Bit rate                                 : 640 Kbps
Channel(s)                               : 2 channels
Channel positions                        : Front: L R
Sampling rate                            : 48.0 KHz
Frame rate                               : 31.250 fps (1536 spf)
Compression mode                         : Lossy
Delay relative to video                  : -5ms
Stream size                              : 549 MiB (1%)
Title                                    : Stereo
Default                                  : Yes
Forced                                   : No


游客,如果您要查看本帖隐藏内容请回复


收藏收藏2 转播转播 分享淘帖 赞 踩
TV应用下载
回复

使用道具 举报

2楼(沙发)
发表于 2017-7-19 11:30:32 | 只看该作者
支持楼主,www.tlcwine.com123有你更精彩!
回复 支持 反对

使用道具 举报

3楼(板凳)
 楼主| 发表于 2017-7-19 11:31:58 | 只看该作者
论坛早就有大神分享过了,只是没什么人发现,我这是借花敬佛了!是部好片,看画面还是挺震撼的www.tlcwine.com电影【独立日2:卷土重来】Resurgence(2016) 2160p UHD BluRay HEVC 10bit[50G]
回复 支持 反对

使用道具 举报

4楼(地板)
发表于 2017-7-19 11:55:11 | 只看该作者
支持楼主,www.tlcwine.com123有你更精彩!
回复 支持 反对

使用道具 举报

5楼
发表于 2017-7-19 11:57:23 | 只看该作者
提示: 该帖被管理员或版主屏蔽
回复 支持 反对

使用道具 举报

6楼
发表于 2017-7-19 12:11:38 | 只看该作者
点功夫换个地方
回复 支持 反对

使用道具 举报

7楼
发表于 2017-7-19 12:20:57 | 只看该作者
这个是remux的原盘么?谢谢分享
回复 支持 反对

使用道具 举报

8楼
发表于 2017-7-19 12:28:11 | 只看该作者
谢谢分享
回复

使用道具 举报

9楼
发表于 2017-7-19 12:43:17 | 只看该作者

谢谢分享
回复

使用道具 举报

10楼
发表于 2017-7-19 12:49:56 | 只看该作者
又是涨姿势了
回复 支持 反对

使用道具 举报

您需要登录后才可以回帖 登录 | 注册

本版积分规则

手机版|www.tlcwine.com知识百科|小黑屋|标签|Sitemap|联系我们|Archiver| www.tlcwine.com中国论坛  

Copyright © 2013-2017 Comsenz Inc.   All Rights Reserved.

Powered by Discuz! X3.1