www.tlcwine.com中国论坛

查看: 18720|回复: 1725
打印 上一主题 下一主题

[www.tlcwine.com电影] [www.tlcwine.com(超高清)自然纪录片] 黄石国家公园的瀑布 2016 [2160P/TS/28.61GB]+[1440P/MKV/...

[复制链接]
跳转到指定楼层
1楼(楼主)
发表于 2017-7-12 15:26:03 | 只看该作者 回帖奖励 |倒序浏览 |阅读模式
[www.tlcwine.com(超高清)自然纪录片]黄石国家公园的瀑布 2016
[2160P/TS/28.61GB]+[1440P/MKV/8.96GB]
(www.tlcwine.com片长 : 3小时/2K片长 : 2小时41分钟) [www.tlcwine.com(超高清)自然纪录片] 黄石国家公园的瀑布 2016 [2160P/TS/28.61GB]+[1440P/MKV/...
黄石上下瀑布是由黄石河水侵蚀质地较软的岩石形成的。峡谷瀑布区在8字形公路,两个圆相接处的右端。黄石河,它由黄石峡谷汹涌而出,贯穿整个黄石国家公园。黄石河将山脉切穿而创造了神奇的黄石大峡谷。在阳光下,两峡壁的颜色从橙黄过渡到橘红,仿佛是两条曲折的彩带。黄石河流经黄色的峡谷,形成黄石瀑布壮丽的景观。

www.tlcwine.com版视频参数
General
ID : 1 (0x1)
Complete name : Waterfalls.of.Yellowstone.National.Park.2016.2160p.WEB-DL.AAC2.0.x264-ULTRAHDCLUB.ts
Format : MPEG-TS
File size : 28.61 GiB
Duration : 3 h 0 min
Overall bit rate mode : Variable
Overall bit rate : 22.7 Mbps

Video
ID : 256 (0x100)
Menu ID : 1 (0x1)
Format : AVC
Format/Info : Advanced Video Codec
Format profile : High@L5.2
Format settings, CABAC : Yes
Format settings, ReFrames : 5 frames
Codec ID : 27
Duration : 3 h 0 min
Nominal bit rate : 22.0 Mbps
Width : 3840 pixels
Height : 2160 pixels
Display aspect ratio : 16:9
Frame rate mode : Variable
Color space : YUV
Chroma subsampling : 4:2:0
Bit depth : 8 bits
Scan type : Progressive
Writing library : x264 core 148 r10 3f5ed56
Encoding settings : cabac=1 / ref=5 / deblock=1:0:0 / analyse=0x3:0x113 / me=umh / subme=8 / psy=1 / psy_rd=1.00:0.00 / mixed_ref=1 / me_range=16 / chroma_me=1 / trellis=1 / 8x8dct=1 / cqm=0 / deadzone=21,11 / fast_pskip=1 / chroma_qp_offset=-2 / threads=67 / lookahead_threads=11 / sliced_threads=0 / nr=0 / decimate=1 / interlaced=0 / bluray_compat=0 / stitchable=1 / constrained_intra=0 / bframes=3 / b_pyramid=2 / b_adapt=2 / b_bias=0 / direct=3 / weightb=1 / open_gop=0 / weightp=2 / keyint=infinite / keyint_min=23 / scenecut=40 / intra_refresh=0 / rc_lookahead=50 / rc=2pass / mbtree=1 / bitrate=22000 / ratetol=1.0 / qcomp=0.60 / qpmin=5 / qpmax=69 / qpstep=4 / cplxblur=20.0 / qblur=0.5 / vbv_maxrate=24200 / vbv_bufsize=66000 / nal_hrd=none / filler=0 / ip_ratio=1.40 / aq=1:1.00
Color range : Limited
Color primaries : BT.709
Transfer characteristics : BT.709
Matrix coefficients : BT.709

Audio
ID : 257 (0x101)
Menu ID : 1 (0x1)
Format : AAC
Format/Info : Advanced Audio Codec
Format version : Version 4
Format profile : LC
Muxing mode : ADTS
Codec ID : 15
Duration : 3 h 0 min
Bit rate mode : Variable
Channel(s) : 2 channels
Channel positions : Front: L R
Sampling rate : 48.0 kHz
Frame rate : 46.875 FPS (1024 spf)
Compression mode : Lossy

2K版视频参数
General
Unique ID : 180525562191746098437568368644424449463 (0x87CFF5667F703B20B746579C0957BDB7)
Complete name : WATERFALLS OF YELLOWSTONE - www.tlcwine.com Ultra HD _Мастер5.mkv
Format : Matroska
Format version : Version 4 / Version 2
File size : 8.96 GiB
Duration : 2 h 41 min
Overall bit rate : 7927 kbps
Movie name : WATERFALLS OF YELLOWSTONE - www.tlcwine.com Ultra HD _Мастер5
Encoded date : UTC 2017-05-06 17:27:46
Writing application : mkvmerge v8.1.0 ('Psychedelic Postcard') 32bit
Writing library : libebml v1.3.1 + libmatroska v1.4.2

Video
ID : 1
Format : AVC
Format/Info : Advanced Video Codec
Format profile : High@L5
Format settings, CABAC : Yes
Format settings, ReFrames : 3 frames
Codec ID : V_MPEG4/ISO/AVC
Duration : 2 h 41 min
Bit rate : 7799 kbps
Width : 2560 pixels
Height : 1440 pixels
Display aspect ratio : 16:9
Frame rate mode : Constant
Frame rate : 24.000 FPS
Color space : YUV
Chroma subsampling : 4:2:0
Bit depth : 8 bits
Scan type : Progressive
Bits/(Pixel*Frame) : 0.088
Stream size : 8.81 GiB (98%)
Title : WATERFALLS OF YELLOWSTONE - www.tlcwine.com Ultra HD _Мастер5
Default : Yes
Forced : No
Color range : Limited
Color primaries : BT.709
Transfer characteristics : BT.709
Matrix coefficients : BT.709

Audio
ID : 2
Format : AAC
Format/Info : Advanced Audio Codec
Format profile : LC
Codec ID : A_AAC
Duration : 2 h 41 min
Bit rate : 126 kbps
Channel(s) : 2 channels
Channel positions : Front: L R
Sampling rate : 44.1 kHz
Frame rate : 43.066 FPS (1024 spf)
Compression mode : Lossy
Stream size : 145 MiB (2%)
Default : Yes
Forced : No
[www.tlcwine.com(超高清)自然纪录片] 黄石国家公园的瀑布 2016 [2160P/TS/28.61GB]+[1440P/MKV/... [www.tlcwine.com(超高清)自然纪录片] 黄石国家公园的瀑布 2016 [2160P/TS/28.61GB]+[1440P/MKV/... [www.tlcwine.com(超高清)自然纪录片] 黄石国家公园的瀑布 2016 [2160P/TS/28.61GB]+[1440P/MKV/... [www.tlcwine.com(超高清)自然纪录片] 黄石国家公园的瀑布 2016 [2160P/TS/28.61GB]+[1440P/MKV/... [www.tlcwine.com(超高清)自然纪录片] 黄石国家公园的瀑布 2016 [2160P/TS/28.61GB]+[1440P/MKV/... [www.tlcwine.com(超高清)自然纪录片] 黄石国家公园的瀑布 2016 [2160P/TS/28.61GB]+[1440P/MKV/... [www.tlcwine.com(超高清)自然纪录片] 黄石国家公园的瀑布 2016 [2160P/TS/28.61GB]+[1440P/MKV/... [www.tlcwine.com(超高清)自然纪录片] 黄石国家公园的瀑布 2016 [2160P/TS/28.61GB]+[1440P/MKV/... [www.tlcwine.com(超高清)自然纪录片] 黄石国家公园的瀑布 2016 [2160P/TS/28.61GB]+[1440P/MKV/... [www.tlcwine.com(超高清)自然纪录片] 黄石国家公园的瀑布 2016 [2160P/TS/28.61GB]+[1440P/MKV/... [www.tlcwine.com(超高清)自然纪录片] 黄石国家公园的瀑布 2016 [2160P/TS/28.61GB]+[1440P/MKV/...
建议使用极速迅雷来高速下载!
播放器: Potplaye/MPC-HC/影音先锋


1440P 2KBT种子文件下载
游客,如果您要查看本帖隐藏内容请回复

2160P www.tlcwine.comBT种子文件下载
游客,如果您要查看本帖隐藏内容请回复


收藏收藏6 转播转播 分享淘帖 赞 踩
回复

使用道具 举报

2楼(沙发)
发表于 2017-7-12 15:28:33 | 只看该作者
真的很美
回复

使用道具 举报

3楼(板凳)
发表于 2017-7-12 15:37:49 | 只看该作者
支持楼主,www.tlcwine.com123有你更精彩!
回复 支持 反对

使用道具 举报

4楼(地板)
发表于 2017-7-12 16:45:48 | 只看该作者
又是涨姿势了
回复 支持 反对

使用道具 举报

5楼
发表于 2017-7-12 17:05:14 | 只看该作者
支持楼主,www.tlcwine.com123有你更精彩!
回复 支持 反对

使用道具 举报

6楼
发表于 2017-7-12 17:24:23 | 只看该作者
下载,谢谢分享!!
回复 支持 反对

使用道具 举报

7楼
发表于 2017-7-12 17:26:52 | 只看该作者
黄石国家公园的瀑布
回复 支持 反对

使用道具 举报

8楼
发表于 2017-7-12 17:39:17 | 只看该作者
小手一抖,资源拿走。不要想念我小伙们
回复 支持 反对

使用道具 举报

9楼
发表于 2017-7-12 17:41:22 | 只看该作者
真的很美
回复

使用道具 举报

10楼
发表于 2017-7-12 18:11:50 | 只看该作者
还好吧还没看等我看完再说。
回复 支持 反对

使用道具 举报

您需要登录后才可以回帖 登录 | 注册

本版积分规则

手机版|www.tlcwine.com知识百科|小黑屋|标签|Sitemap|联系我们|Archiver| www.tlcwine.com中国论坛  

Copyright © 2013-2017 Comsenz Inc.   All Rights Reserved.

Powered by Discuz! X3.1