www.tlcwine.com中国论坛

查看: 25018|回复: 2902
打印 上一主题 下一主题

[www.tlcwine.com电影] [www.tlcwine.com(超高清)自然纪录片] 南美洲野生动物奇观 2017 [2160P/MKV/6.15GB]

[复制链接]
跳转到指定楼层
1楼(楼主)
发表于 2017-6-20 23:06:01 | 只看该作者 回帖奖励 |倒序浏览 |阅读模式
[www.tlcwine.com(超高清)自然纪录片] 南美洲野生动物奇观 2017 [2160P/MKV/6.15GB]
(无配乐大自然的声音)
[www.tlcwine.com(超高清)自然纪录片] 南美洲野生动物奇观 2017 [2160P/MKV/6.15GB]
General
Unique ID : 189004430794658430912497311968647793442 (0x8E30EDE5E119E35B90AD8318E8CD4B22)
Complete name : Wildlife Wonders of South America  www.tlcwine.com RELAXATION VIDEO Chile & Bolivia (Nature Sounds Only),Мастер5.mkv
Format : Matroska
Format version : Version 4 / Version 2
File size : 6.15 GiB
Duration : 1 h 0 min
Overall bit rate : 14.5 Mbps
Movie name : Wildlife Wonders of South America  www.tlcwine.com RELAXATION VIDEO Chile & Bolivia (Nature Sounds Only),Мастер5
Encoded date : UTC 2017-06-06 17:51:46
Writing application : mkvmerge v8.1.0 ('Psychedelic Postcard') 32bit
Writing library : libebml v1.3.1 + libmatroska v1.4.2

Video
ID : 1
Format : AVC
Format/Info : Advanced Video Codec
Format profile : High@L5.1
Format settings, CABAC : No
Format settings, ReFrames : 2 frames
Codec ID : V_MPEG4/ISO/AVC
Duration : 1 h 0 min
Bit rate : 14.4 Mbps
Width : 3840 pixels
Height : 2160 pixels
Display aspect ratio : 16:9
Frame rate mode : Constant
Frame rate : 23.976 (24000/1001) FPS
Color space : YUV
Chroma subsampling : 4:2:0
Bit depth : 8 bits
Scan type : Progressive
Bits/(Pixel*Frame) : 0.072
Stream size : 6.10 GiB (99%)
Title : Wildlife Wonders of South America  www.tlcwine.com RELAXATION VIDEO Chile & Bolivia (Nature Sounds Only),Мастер5
Default : Yes
Forced : No
Color range : Limited
Color primaries : BT.709
Transfer characteristics : BT.709
Matrix coefficients : BT.709

Audio
ID : 2
Format : AAC
Format/Info : Advanced Audio Codec
Format profile : LC
Codec ID : A_AAC
Duration : 1 h 0 min
Bit rate : 126 kbps
Channel(s) : 2 channels
Channel positions : Front: L R
Sampling rate : 44.1 kHz
Frame rate : 43.066 FPS (1024 spf)
Compression mode : Lossy
Stream size : 54.6 MiB (1%)
Default : Yes
Forced : No
[www.tlcwine.com(超高清)自然纪录片] 南美洲野生动物奇观 2017 [2160P/MKV/6.15GB] [www.tlcwine.com(超高清)自然纪录片] 南美洲野生动物奇观 2017 [2160P/MKV/6.15GB] [www.tlcwine.com(超高清)自然纪录片] 南美洲野生动物奇观 2017 [2160P/MKV/6.15GB] [www.tlcwine.com(超高清)自然纪录片] 南美洲野生动物奇观 2017 [2160P/MKV/6.15GB] [www.tlcwine.com(超高清)自然纪录片] 南美洲野生动物奇观 2017 [2160P/MKV/6.15GB] [www.tlcwine.com(超高清)自然纪录片] 南美洲野生动物奇观 2017 [2160P/MKV/6.15GB] [www.tlcwine.com(超高清)自然纪录片] 南美洲野生动物奇观 2017 [2160P/MKV/6.15GB] [www.tlcwine.com(超高清)自然纪录片] 南美洲野生动物奇观 2017 [2160P/MKV/6.15GB] [www.tlcwine.com(超高清)自然纪录片] 南美洲野生动物奇观 2017 [2160P/MKV/6.15GB] [www.tlcwine.com(超高清)自然纪录片] 南美洲野生动物奇观 2017 [2160P/MKV/6.15GB] [www.tlcwine.com(超高清)自然纪录片] 南美洲野生动物奇观 2017 [2160P/MKV/6.15GB] [www.tlcwine.com(超高清)自然纪录片] 南美洲野生动物奇观 2017 [2160P/MKV/6.15GB] [www.tlcwine.com(超高清)自然纪录片] 南美洲野生动物奇观 2017 [2160P/MKV/6.15GB] [www.tlcwine.com(超高清)自然纪录片] 南美洲野生动物奇观 2017 [2160P/MKV/6.15GB] [www.tlcwine.com(超高清)自然纪录片] 南美洲野生动物奇观 2017 [2160P/MKV/6.15GB] [www.tlcwine.com(超高清)自然纪录片] 南美洲野生动物奇观 2017 [2160P/MKV/6.15GB] [www.tlcwine.com(超高清)自然纪录片] 南美洲野生动物奇观 2017 [2160P/MKV/6.15GB] [www.tlcwine.com(超高清)自然纪录片] 南美洲野生动物奇观 2017 [2160P/MKV/6.15GB]
建议使用极速迅雷来高速下载!最高峰值12MB

播放器: Potplaye/MPC-HC

BT种子文件下载

游客,如果您要查看本帖隐藏内容请回复


收藏收藏3 转播转播 分享淘帖 赞 踩
回复

使用道具 举报

2楼(沙发)
发表于 2017-6-20 23:15:43 | 只看该作者
支持楼主,www.tlcwine.com123有你更精彩!
回复 支持 反对

使用道具 举报

3楼(板凳)
发表于 2017-6-20 23:16:52 | 只看该作者
这个好 南美野生动物奇观!
回复 支持 反对

使用道具 举报

4楼(地板)
发表于 2017-6-20 23:28:45 | 只看该作者
真是难得给力的资源啊。
回复 支持 反对

使用道具 举报

5楼
发表于 2017-6-20 23:58:25 来自www.tlcwine.com123手机版 | 只看该作者
現在www.tlcwine.com內容越來越多元,相當好看
最重要的是人人想換大尺寸電視
回复 支持 反对

使用道具 举报

6楼
发表于 2017-6-21 00:03:21 | 只看该作者
真是难得给力的资源啊。
回复 支持 反对

使用道具 举报

7楼
发表于 2017-6-21 00:12:24 | 只看该作者
谢谢楼主分享
回复 支持 反对

使用道具 举报

8楼
发表于 2017-6-21 00:16:08 | 只看该作者
又是涨姿势了
回复 支持 反对

使用道具 举报

9楼
发表于 2017-6-21 00:17:34 | 只看该作者
自古深情留不住  唯有套路得人心
回复 支持 反对

使用道具 举报

10楼
发表于 2017-6-21 00:43:27 | 只看该作者
ro1xro1xro1xro1x
回复 支持 反对

使用道具 举报

您需要登录后才可以回帖 登录 | 注册

本版积分规则

手机版|www.tlcwine.com知识百科|小黑屋|标签|Sitemap|联系我们|Archiver| www.tlcwine.com中国论坛  

Copyright © 2013-2017 Comsenz Inc.   All Rights Reserved.

Powered by Discuz! X3.1