www.tlcwine.com中国论坛

查看: 14460|回复: 1281
打印 上一主题 下一主题

[www.tlcwine.com电影] www.tlcwine.com蓝光原盘 爱乐之城 La.La.Land.2016.2160p.BluRay.HEVC.TrueHD.7.1[88GB]

[复制链接]
跳转到指定楼层
1楼(楼主)
发表于 2017-6-20 13:05:49 | 只看该作者 回帖奖励 |倒序浏览 |阅读模式
第4部4K蓝光原盘 爱乐之城 La.La.Land.2016.2160p.BluRay.HEVC.TrueHD.7.1.Atmos-TERMiNAL[BD4 88GB]

www.tlcwine.com蓝光原盘 爱乐之城 La.La.Land.2016.2160p.BluRay.HEVC.TrueHD.7.1[88GB]
◎译  名 爱乐之城/星声梦里人(港)/乐来越爱你(台)
◎片  名 La La Land
◎年  代 2016
◎国  家 美国
◎类  别 剧情/爱情/歌舞
◎语  言 英语
◎上映日期 2016-08-31(威尼斯电影节)/2016-12-25(美国)/2017-02-14(中国大陆)
◎IMDb评分  8.4/10 from 221,889 users
◎IMDb链接  http://www.imdb.com/title/tt3783958/
◎豆瓣评分 8.4/10 from 260,847 users
◎豆瓣链接 https://movie.douban.com/subject/25934014/
◎片  长 128分钟
◎导  演 达米恩·查泽雷 Damien Chazelle
◎主  演 瑞恩·高斯林 Ryan Gosling
      艾玛·斯通 Emma Stone
      约翰·传奇 John Legend
      罗丝玛丽·德薇特 Rosemarie DeWitt
      芬·维特洛克 Finn Wittrock
      杰西卡·罗德 Jessica Rothe
      水野索诺娅 Sonoya Mizuno
      考莉·赫尔南德斯 Callie Hernandez
      J·K·西蒙斯 J.K. Simmons
      汤姆·艾弗瑞特·斯科特 Tom Everett Scott
      米根·费伊 Meagen Fay
      达蒙·冈普顿 Damon Gupton
      贾森·福克斯 Jason Fuchs
      乔什·平茨 Josh Pence
      艾米·科恩 Amiée Conn
      特里·沃尔特斯 Terry Walters
      汤姆·谢尔顿 Thom Shelton
      信达·亚当斯 Cinda Adams
      克劳丁·克劳迪奥 Claudine Claudio
      D·A·瓦拉赫 D.A. Wallach
      特雷弗·里斯奥尔 Trevor Lissauer
      奥莉维亚·汉密尔顿 Olivia Hamilton
      安娜·查泽雷 Anna Chazelle
      马里乌斯·代·弗里斯 Marius De 迈图娱乐注册ies
      妮科尔·库隆 Nicole Coulon
      迈尔斯·安德森 Miles Anderson
      约翰·辛德曼 John Hindman
      瓦拉里·雷·米勒 Valarie Rae Miller
      基夫·范登·霍伊维尔 Kiff Vanden Heuvel
      佐伊·霍尔 Zoë Hall
      登普西·帕皮恩 Dempsey Pappion
      辛德拉·车 Cindera Che

◎简  介

  米娅(艾玛·斯通 Emma Stone 饰)渴望成为一名演员,但至今她仍旧只是片场咖啡厅里的一名平凡的咖啡师,尽管不停的参加着大大小小的试镜,但米娅收获的只有失败。某日,在一场派对之中,米娅邂逅了名为塞巴斯汀(瑞恩·高斯林 Ryan Gosling 饰)的男子,起初两人之间产生了小小的矛盾,但很快,米娅便被塞巴斯汀身上闪耀的才华以及他对爵士乐的纯粹追求所吸引,最终两人走到了一起。
  在塞巴斯汀的鼓励下,米娅辞掉了咖啡厅的工作,专心为自己写起了剧本,与此同时,塞巴斯汀为了获得一份稳定的收入,加入了一支流行爵士乐队,开始演奏自己并不喜欢的现代爵士乐,没想到一炮而红。随着时间的推移,努力追求梦想的两人,彼此之间的距离却越来越远,在理想和感情之间,他们必须做出选择。

◎获奖情况

  第89届奥斯卡金像奖  (2017)
  最佳影片(提名) 约旦·霍洛维茨 / 弗雷德·伯杰 / 马克·普拉特
  最佳导演 达米恩·查泽雷
  最佳男主角(提名) 瑞恩·高斯林
  最佳女主角 艾玛·斯通
  最佳原创剧本(提名) 达米恩·查泽雷
  最佳剪辑(提名) 汤姆·克罗斯
  最佳摄影 莱纳斯·桑德格伦
  最佳混音(提名) 史蒂文·莫罗 / Ai-Ling Lee / 安迪·尼尔森
  最佳音效剪辑(提名) Mildred Iatrou / Ai-Ling Lee
  最佳艺术指导 Sandy Reynolds-Wasco / 大卫·维斯克
  最佳服装设计(提名) 玛丽·索弗瑞斯
  最佳原创配乐 贾斯汀·赫维兹
  最佳原创歌曲 贾斯汀·赫维兹 / 本吉·帕塞克 / 贾斯廷·保罗
  最佳原创歌曲(提名) 贾斯汀·赫维兹 / 本吉·帕塞克 / 贾斯廷·保罗






The Title the Disc: La.La.Land.2016.COMPLETE.UHD.BLURAY-TERMINAL
the Disc Size: 94,893,713,168 bytes
Protection: AACS2
the BD-the Java: Yes
the Extras: Ultra HD
BDInfo: 0.5.8.1

the PLAYLIST the REPORT:

the Name: 00000.mpls  
the Length: 2: 07: 55.876 (h: m: s.ms)
Size: 80,364,509,184 bytes
Total Bitrate: 83.76 Mbps

VIDEO:

Codec Bitrate Description   
----- ------- ---------- -   
MPEG-H HEVC Video 72,647 kbps 2160p / 23.976 fps / 16 9 / Main 10 Profile 5.1 High / 4: 2: 0/10 bits / HDR / BT.2020 /

AUDIO:

Codec Language Bitrate Description   
----- - ------- ------- -----------   
the Dolby the Atmos / TrueHD the Audio English 4377 kbps 7.1-Atmos / 48 kHz / 4377 kbps / 24-bit (AC3 Core: 5.1-EX / 48 kHz / 640 kbps The)
the Dolby the Digital Spanish the Audio 640 kbps 5.1 / 48 kHz / 640 kbps The
the Dolby the Digi tal Audio French 640 kbps 5.1 / 48 kHz / 640 kbps
the Dolby the Digital the Audio English 224 kbps 2.0 / 48 kHz / 224 kbps / the Dolby Surround
the Dolby the Digital the Audio English 224 kbps 2.0 / 48 kHz / 224 kbps / the Dolby Surround
the Dolby the Digital the Audio English 224 kbps 2.0 / 48 kHz / 224 kbps The / the Dolby Surround

SUBTITLES:

Codec the Language the Bitrate the Description   
----- -------- ------- -----------   
Presentation the Graphics English kbps The 28.976                    
Presentation the Graphics English 32.39 kbps The                     
Presentation the Graphics Spanish 26.564 kbps The                    
Presentation the Graphics French 5.223 kbps The                     

FILES:

the Name Time The with In the Length Size of Total the Bitrate  
---- ------- ------ ---- --- ----------  
00000.M2TS 0: 00: 00.000 2: 07: 55.876 8 80,364,509,184 3,758 kbps

游客,如果您要查看本帖隐藏内容请回复

收藏收藏2 转播转播 分享淘帖 赞 踩
回复

使用道具 举报

2楼(沙发)
发表于 2017-6-20 14:06:12 | 只看该作者
新手前来学习www.tlcwine.com
回复 支持 反对

使用道具 举报

3楼(板凳)
发表于 2017-6-20 14:16:45 | 只看该作者
谢谢分享!!!!
回复

使用道具 举报

4楼(地板)
发表于 2017-6-20 14:20:01 | 只看该作者
Format                         : BDAV
Format/Info                    : Blu-ray Video
File size                      : 74.8 GiB
Duration                       : 43 min 8 s
Overall bit rate mode          : Variable
Overall bit rate               : 248 Mb/s
Maximum Overall bit rate       : 109 Mb/s
FileExtension_Invalid          : m2ts mts ssif

Video
ID                             : 4113 (0x1011)
Menu ID                        : 1 (0x1)
Format                         : HEVC
Format/Info                    : High Efficiency Video Coding
Format profile                 : Main [email protected]@High
Codec ID                       : 36
Duration                       : 43 min 8 s
Bit rate                       : 228 Mb/s
Width                          : 3 840 pixels
Height                         : 2 160 pixels
Display aspect ratio           : 16:9
Frame rate                     : 23.976 (24000/1001) FPS
Color space                    : YUV
Chroma subsampling             : 4:2:0 (Type 2)
Bit depth                      : 10 bits
Bits/(Pixel*Frame)             : 1.148
Stream size                    : 68.8 GiB (92%)
Color range                    : Limited
Color primaries                : BT.2020
Transfer characteristics       : SMPTE ST 2084
Matrix coefficients            : BT.2020 non-constant
Mastering display color primar : R: x=0.680000 y=0.320000, G: x=0.265000 y=0.690000, B: x=0.150000 y=0.060000, White point: x=0.312700 y=0.329000
Mastering display luminance    : min: 0.0050 cd/m2, max: 4000.0000 cd/m2
Maximum Content Light Level    : 10000 cd/m2
Maximum Frame-Average Light Le : 3647 cd/m2

Audio #1
ID                             : 4352 (0x1100)
Menu ID                        : 1 (0x1)
Format                         : TrueHD / AC-3
Format profile                 : TrueHD+Atmos / TrueHD / AC-3
Format settings, Endianness    : Big
Muxing mode                    : Stream extension
Codec ID                       : 131
Duration                       : 43 min 6 s
Bit rate mode                  : Variable / Constant
Bit rate                       : 640 kb/s
Maximum bit rate               : 8 316 kb/s
Channel(s)                     : Object Based / 8 channels / 6 channels
Channel positions              : Object Based / Front: L C R, Side: L R, Back: L R, LFE / Front: L C R, Side: L R, LFE
Sampling rate                  :  / 48.0 kHz / 48.0 kHz
Frame rate                     : 31.250 FPS (1536 spf)
Bit depth                      : 16 bits
Stream size                    : 197 MiB (0%)
Service kind                   : Complete Main

Audio #2
ID                             : 4353 (0x1101)
Menu ID                        : 1 (0x1)
Format                         : AC-3
Format/Info                    : Audio Coding 3
Format settings, Endianness    : Big
Codec ID                       : 129
Duration                       : 43 min 7 s
Bit rate mode                  : Constant
Bit rate                       : 640 kb/s
Channel(s)                     : 6 channels
Channel positions              : Front: L C R, Side: L R, LFE
Sampling rate                  : 48.0 kHz
Frame rate                     : 31.250 FPS (1536 spf)
Bit depth                      : 16 bits
Compression mode               : Lossy
Delay relative to video        : -26 ms
Stream size                    : 197 MiB (0%)
Service kind                   : Complete Main

Audio #3
ID                             : 4354 (0x1102)
Menu ID                        : 1 (0x1)
Format                         : AC-3
Format/Info                    : Audio Coding 3
Format settings, Endianness    : Big
Codec ID                       : 129
Duration                       : 43 min 7 s
Bit rate mode                  : Constant
Bit rate                       : 640 kb/s
Channel(s)                     : 6 channels
Channel positions              : Front: L C R, Side: L R, LFE
Sampling rate                  : 48.0 kHz
Frame rate                     : 31.250 FPS (1536 spf)
Bit depth                      : 16 bits
Compression mode               : Lossy
Delay relative to video        : -26 ms
Stream size                    : 197 MiB (0%)
Service kind                   : Complete Main

Audio #4
ID                             : 4355 (0x1103)
Menu ID                        : 1 (0x1)
Format                         : AC-3
Format/Info                    : Audio Coding 3
Format settings, Endianness    : Big
Codec ID                       : 129
Duration                       : 43 min 8 s
Bit rate mode                  : Constant
Bit rate                       : 640 kb/s
Channel(s)                     : 6 channels
Channel positions              : Front: L C R, Side: L R, LFE
Sampling rate                  : 48.0 kHz
Frame rate                     : 31.250 FPS (1536 spf)
Bit depth                      : 16 bits
Compression mode               : Lossy
Delay relative to video        : -26 ms
Stream size                    : 197 MiB (0%)
Service kind                   : Complete Main

Audio #5
ID                             : 4356 (0x1104)
Menu ID                        : 1 (0x1)
Format                         : AC-3
Format/Info                    : Audio Coding 3
Format settings, Endianness    : Big
Codec ID                       : 129
Duration                       : 43 min 7 s
Bit rate mode                  : Constant
Bit rate                       : 640 kb/s
Channel(s)                     : 6 channels
Channel positions              : Front: L C R, Side: L R, LFE
Sampling rate                  : 48.0 kHz
Frame rate                     : 31.250 FPS (1536 spf)
Bit depth                      : 16 bits
Compression mode               : Lossy
Delay relative to video        : -26 ms
Stream size                    : 197 MiB (0%)
Service kind                   : Complete Main

Audio #6
ID                             : 4357 (0x1105)
Menu ID                        : 1 (0x1)
Format                         : AC-3
Format/Info                    : Audio Coding 3
Format settings, Endianness    : Big
Codec ID                       : 129
Duration                       : 43 min 8 s
Bit rate mode                  : Constant
Bit rate                       : 640 kb/s
Channel(s)                     : 6 channels
Channel positions              : Front: L C R, Side: L R, LFE
Sampling rate                  : 48.0 kHz
Frame rate                     : 31.250 FPS (1536 spf)
Bit depth                      : 16 bits
Compression mode               : Lossy
Delay relative to video        : -26 ms
Stream size                    : 197 MiB (0%)
Service kind                   : Complete Main

Audio #7
ID                             : 4358 (0x1106)
Menu ID                        : 1 (0x1)
Format                         : AC-3
Format/Info                    : Audio Coding 3
Format settings, Endianness    : Big
Codec ID                       : 129
Duration                       : 43 min 8 s
Bit rate mode                  : Constant
Bit rate                       : 640 kb/s
Channel(s)                     : 6 channels
Channel positions              : Front: L C R, Side: L R, LFE
Sampling rate                  : 48.0 kHz
Frame rate                     : 31.250 FPS (1536 spf)
Bit depth                      : 16 bits
Compression mode               : Lossy
Delay relative to video        : -26 ms
Stream size                    : 197 MiB (0%)
Service kind                   : Complete Main

Audio #8
ID                             : 4359 (0x1107)
Menu ID                        : 1 (0x1)
Format                         : AC-3
Format/Info                    : Audio Coding 3
Format settings, Endianness    : Big
Codec ID                       : 129
Duration                       : 43 min 8 s
Bit rate mode                  : Constant
Bit rate                       : 640 kb/s
Channel(s)                     : 6 channels
Channel positions              : Front: L C R, Side: L R, LFE
Sampling rate                  : 48.0 kHz
Frame rate                     : 31.250 FPS (1536 spf)
Bit depth                      : 16 bits
Compression mode               : Lossy
Delay relative to video        : -26 ms
Stream size                    : 197 MiB (0%)
Service kind                   : Complete Main

Audio #9
ID                             : 4360 (0x1108)
Menu ID                        : 1 (0x1)
Format                         : AC-3
Format/Info                    : Audio Coding 3
Format settings, Endianness    : Big
Codec ID                       : 129
Duration                       : 43 min 8 s
Bit rate mode                  : Constant
Bit rate                       : 640 kb/s
Channel(s)                     : 6 channels
Channel positions              : Front: L C R, Side: L R, LFE
Sampling rate                  : 48.0 kHz
Frame rate                     : 31.250 FPS (1536 spf)
Bit depth                      : 16 bits
Compression mode               : Lossy
Delay relative to video        : -26 ms
Stream size                    : 197 MiB (0%)
Service kind                   : Complete Main

Audio #10
ID                             : 4361 (0x1109)
Menu ID                        : 1 (0x1)
Format                         : AC-3
Format/Info                    : Audio Coding 3
Format settings, Endianness    : Big
Codec ID                       : 129
Duration                       : 43 min 8 s
Bit rate mode                  : Constant
Bit rate                       : 640 kb/s
Channel(s)                     : 6 channels
Channel positions              : Front: L C R, Side: L R, LFE
Sampling rate                  : 48.0 kHz
Frame rate                     : 31.250 FPS (1536 spf)
Bit depth                      : 16 bits
Compression mode               : Lossy
Delay relative to video        : -26 ms
Stream size                    : 197 MiB (0%)
Service kind                   : Complete Main

Audio #11
ID                             : 4362 (0x110A)
Menu ID                        : 1 (0x1)
Format                         : AC-3
Format/Info                    : Audio Coding 3
Format settings, Endianness    : Big
Codec ID                       : 129
Duration                       : 43 min 8 s
Bit rate mode                  : Constant
Bit rate                       : 640 kb/s
Channel(s)                     : 6 channels
Channel positions              : Front: L C R, Side: L R, LFE
Sampling rate                  : 48.0 kHz
Frame rate                     : 31.250 FPS (1536 spf)
Bit depth                      : 16 bits
Compression mode               : Lossy
Delay relative to video        : -26 ms
Stream size                    : 197 MiB (0%)
Service kind                   : Complete Main

Audio #12
ID                             : 4363 (0x110B)
Menu ID                        : 1 (0x1)
Format                         : AC-3
Format/Info                    : Audio Coding 3
Format settings, Endianness    : Big
Codec ID                       : 129
Duration                       : 43 min 8 s
Bit rate mode                  : Constant
Bit rate                       : 640 kb/s
Channel(s)                     : 6 channels
Channel positions              : Front: L C R, Side: L R, LFE
Sampling rate                  : 48.0 kHz
Frame rate                     : 31.250 FPS (1536 spf)
Bit depth                      : 16 bits
Compression mode               : Lossy
Delay relative to video        : -26 ms
Stream size                    : 197 MiB (0%)
Service kind                   : Complete Main

Audio #13
ID                             : 4364 (0x110C)
Menu ID                        : 1 (0x1)
Format                         : AC-3
Format/Info                    : Audio Coding 3
Format settings, Endianness    : Big
Codec ID                       : 129
Duration                       : 43 min 8 s
Bit rate mode                  : Constant
Bit rate                       : 640 kb/s
Channel(s)                     : 6 channels
Channel positions              : Front: L C R, Side: L R, LFE
Sampling rate                  : 48.0 kHz
Frame rate                     : 31.250 FPS (1536 spf)
Bit depth                      : 16 bits
Compression mode               : Lossy
Delay relative to video        : -26 ms
Stream size                    : 197 MiB (0%)
Service kind                   : Complete Main

Audio #14
ID                             : 4365 (0x110D)
Menu ID                        : 1 (0x1)
Format                         : AC-3
Format/Info                    : Audio Coding 3
Format settings, Endianness    : Big
Codec ID                       : 129
Duration                       : 43 min 8 s
Bit rate mode                  : Constant
Bit rate                       : 640 kb/s
Channel(s)                     : 6 channels
Channel positions              : Front: L C R, Side: L R, LFE
Sampling rate                  : 48.0 kHz
Frame rate                     : 31.250 FPS (1536 spf)
Bit depth                      : 16 bits
Compression mode               : Lossy
Delay relative to video        : -26 ms
Stream size                    : 197 MiB (0%)
Service kind                   : Complete Main

Audio #15
ID                             : 4366 (0x110E)
Menu ID                        : 1 (0x1)
Format                         : AC-3
Format/Info                    : Audio Coding 3
Format settings, Endianness    : Big
Codec ID                       : 129
Duration                       : 43 min 8 s
Bit rate mode                  : Constant
Bit rate                       : 640 kb/s
Channel(s)                     : 6 channels
Channel positions              : Front: L C R, Side: L R, LFE
Sampling rate                  : 48.0 kHz
Frame rate                     : 31.250 FPS (1536 spf)
Bit depth                      : 16 bits
Compression mode               : Lossy
Delay relative to video        : -26 ms
Stream size                    : 197 MiB (0%)
Service kind                   : Complete Main

Audio #16
ID                             : 4367 (0x110F)
Menu ID                        : 1 (0x1)
Format                         : AC-3
Format/Info                    : Audio Coding 3
Format settings, Endianness    : Big
Codec ID                       : 129
Duration                       : 43 min 8 s
Bit rate mode                  : Constant
Bit rate                       : 640 kb/s
Channel(s)                     : 6 channels
Channel positions              : Front: L C R, Side: L R, LFE
Sampling rate                  : 48.0 kHz
Frame rate                     : 31.250 FPS (1536 spf)
Bit depth                      : 16 bits
Compression mode               : Lossy
Delay relative to video        : -26 ms
Stream size                    : 197 MiB (0%)
Service kind                   : Complete Main

Text #1
ID                             : 4768 (0x12A0)
Menu ID                        : 1 (0x1)
Format                         : PGS
Codec ID                       : 144

Text #2
ID                             : 4769 (0x12A1)
Menu ID                        : 1 (0x1)
Format                         : PGS
Codec ID                       : 144

Text #3
ID                             : 4770 (0x12A2)
Menu ID                        : 1 (0x1)
Format                         : PGS
Codec ID                       : 144

Text #4
ID                             : 4771 (0x12A3)
Menu ID                        : 1 (0x1)
Format                         : PGS
Codec ID                       : 144

Text #5
ID                             : 4772 (0x12A4)
Menu ID                        : 1 (0x1)
Format                         : PGS
Codec ID                       : 144

Text #6
ID                             : 4773 (0x12A5)
Menu ID                        : 1 (0x1)
Format                         : PGS
Codec ID                       : 144

Text #7
ID                             : 4774 (0x12A6)
Menu ID                        : 1 (0x1)
Format                         : PGS
Codec ID                       : 144

Text #8
ID                             : 4775 (0x12A7)
Menu ID                        : 1 (0x1)
Format                         : PGS
Codec ID                       : 144

Text #9
ID                             : 4776 (0x12A8)
Menu ID                        : 1 (0x1)
Format                         : PGS
Codec ID                       : 144

Text #10
ID                             : 4777 (0x12A9)
Menu ID                        : 1 (0x1)
Format                         : PGS
Codec ID                       : 144

Text #11
ID                             : 4778 (0x12AA)
Menu ID                        : 1 (0x1)
Format                         : PGS
Codec ID                       : 144

Text #12
ID                             : 4779 (0x12AB)
Menu ID                        : 1 (0x1)
Format                         : PGS
Codec ID                       : 144

Text #13
ID                             : 4780 (0x12AC)
Menu ID                        : 1 (0x1)
Format                         : PGS
Codec ID                       : 144

Text #14
ID                             : 4781 (0x12AD)
Menu ID                        : 1 (0x1)
Format                         : PGS
Codec ID                       : 144

Text #15
ID                             : 4782 (0x12AE)
Menu ID                        : 1 (0x1)
Format                         : PGS
Codec ID                       : 144

Text #16
ID                             : 4783 (0x12AF)
Menu ID                        : 1 (0x1)
Format                         : PGS
Codec ID                       : 144

Text #17
ID                             : 4784 (0x12B0)
Menu ID                        : 1 (0x1)
Format                         : PGS
Codec ID                       : 144

Text #18
ID                             : 4785 (0x12B1)
Menu ID                        : 1 (0x1)
Format                         : PGS
Codec ID                       : 144

Text #19
ID                             : 4786 (0x12B2)
Menu ID                        : 1 (0x1)
Format                         : PGS
Codec ID                       : 144

Text #20
ID                             : 4787 (0x12B3)
Menu ID                        : 1 (0x1)
Format                         : PGS
Codec ID                       : 144

Text #21
ID                             : 4788 (0x12B4)
Menu ID                        : 1 (0x1)
Format                         : PGS
Codec ID                       : 144

Text #22
ID                             : 4789 (0x12B5)
Menu ID                        : 1 (0x1)
Format                         : PGS
Codec ID                       : 144

Text #23
ID                             : 4790 (0x12B6)
Menu ID                        : 1 (0x1)
Format                         : PGS
Codec ID                       : 144

Text #24
ID                             : 4791 (0x12B7)
Menu ID                        : 1 (0x1)
Format                         : PGS
Codec ID                       : 144

Text #25
ID                             : 4792 (0x12B8)
Menu ID                        : 1 (0x1)
Format                         : PGS
Codec ID                       : 144

Text #26
ID                             : 4793 (0x12B9)
Menu ID                        : 1 (0x1)
Format                         : PGS
Codec ID                       : 144

Text #27
ID                             : 4794 (0x12BA)
Menu ID                        : 1 (0x1)
Format                         : PGS
Codec ID                       : 144

Text #28
ID                             : 4795 (0x12BB)
Menu ID                        : 1 (0x1)
Format                         : PGS
Codec ID                       : 144

Text #29
ID                             : 4796 (0x12BC)
Menu ID                        : 1 (0x1)
Format                         : PGS
Codec ID                       : 144

Text #30
ID                             : 4797 (0x12BD)
Menu ID                        : 1 (0x1)
Format                         : PGS
Codec ID                       : 144

Text #31
ID                             : 4798 (0x12BE)
Menu ID                        : 1 (0x1)
Format                         : PGS
Codec ID                       : 144

Text #32
ID                             : 4799 (0x12BF)
Menu ID                        : 1 (0x1)
Format                         : PGS
Codec ID                       : 144
回复 支持 反对

使用道具 举报

5楼
发表于 2017-6-20 14:21:53 | 只看该作者
支持楼主,www.tlcwine.com123有你更精彩!
回复 支持 反对

使用道具 举报

6楼
发表于 2017-6-20 14:27:59 | 只看该作者
谢谢分享!!!
回复

使用道具 举报

7楼
发表于 2017-6-20 14:41:10 | 只看该作者
看起来好像不错的样子
回复 支持 反对

使用道具 举报

8楼
发表于 2017-6-20 14:41:58 | 只看该作者
支持楼主,www.tlcwine.com123有你更精彩!
回复 支持 反对

使用道具 举报

9楼
发表于 2017-6-20 14:54:09 | 只看该作者
谢谢·分享·
回复 支持 反对

使用道具 举报

10楼
发表于 2017-6-20 15:00:09 | 只看该作者
蓝光原盘,嘿嘿嘿……
回复 支持 反对

使用道具 举报

您需要登录后才可以回帖 登录 | 注册

本版积分规则

手机版|www.tlcwine.com知识百科|小黑屋|标签|Sitemap|联系我们|Archiver| www.tlcwine.com中国论坛  

Copyright © 2013-2017 Comsenz Inc.   All Rights Reserved.

Powered by Discuz! X3.1