www.tlcwine.com中国论坛

查看: 19640|回复: 1412
打印 上一主题 下一主题

[MV] [韩国UMAX.UHD] T-ARA - Number 9 (HEVC 60fps 10bit)[2160P/TS/911MB]

[复制链接]
跳转到指定楼层
1楼(楼主)
发表于 2017-4-18 00:19:24 | 只看该作者 回帖奖励 |倒序浏览 |阅读模式
[韩国UMAX.UHD] T-ARA - Number 9 (HEVC 60fps 10bit)[2160P/TS/911MB]
[韩国UMAX.UHD] T-ARA - Number 9 (HEVC 60fps 10bit)[2160P/TS/911MB] [韩国UMAX.UHD] T-ARA - Number 9 (HEVC 60fps 10bit)[2160P/TS/911MB] [韩国UMAX.UHD] T-ARA - Number 9 (HEVC 60fps 10bit)[2160P/TS/911MB] [韩国UMAX.UHD] T-ARA - Number 9 (HEVC 60fps 10bit)[2160P/TS/911MB] [韩国UMAX.UHD] T-ARA - Number 9 (HEVC 60fps 10bit)[2160P/TS/911MB] [韩国UMAX.UHD] T-ARA - Number 9 (HEVC 60fps 10bit)[2160P/TS/911MB] [韩国UMAX.UHD] T-ARA - Number 9 (HEVC 60fps 10bit)[2160P/TS/911MB] [韩国UMAX.UHD] T-ARA - Number 9 (HEVC 60fps 10bit)[2160P/TS/911MB] [韩国UMAX.UHD] T-ARA - Number 9 (HEVC 60fps 10bit)[2160P/TS/911MB] [韩国UMAX.UHD] T-ARA - Number 9 (HEVC 60fps 10bit)[2160P/TS/911MB] [韩国UMAX.UHD] T-ARA - Number 9 (HEVC 60fps 10bit)[2160P/TS/911MB]

General
ID : 1 (0x1)
Complete name : T-ARA - Number 9 (140710 UMAX MCD Girls Special) UHD.ts
Format : MPEG-TS
File size : 911 MiB
Duration : 3 min 48 s
Overall bit rate mode : Variable
Overall bit rate : 33.4 Mbps

Video
ID : 256 (0x100)
Menu ID : 1 (0x1)
Format : HEVC
Format/Info : High Efficiency Video Coding
Format profile : Main [email protected]@Main
Codec ID : 36
Duration : 3 min 48 s
Bit rate : 31.4 Mbps
Width : 3840 pixels
Height : 2160 pixels
Display aspect ratio : 16:9
Frame rate : 60.000 FPS
Color space : YUV
Chroma subsampling : 4:2:0
Bit depth : 10 bits
Bits/(Pixel*Frame) : 0.063
Stream size : 855 MiB (94%)
Writing library : ATEME Titan KFE 3.5.1 (4.5.1.2)

Audio
ID : 257 (0x101)
Menu ID : 1 (0x1)
Format : AC-3
Format/Info : Audio Coding 3
Format settings, Endianness : Big
Codec ID : 129
Duration : 3 min 49 s
Bit rate mode : Constant
Bit rate : 384 kbps
Channel(s) : 2 channels
Channel positions : Front: L R
Sampling rate : 48.0 kHz
Frame rate : 31.250 FPS (1536 spf)
Bit depth : 16 bits
Compression mode : Lossy
Delay relative to video : -1 s 74 ms
Stream size : 10.5 MiB (1%)
Language : Korean
Service kind : Complete Main

Menu
ID : 4096 (0x1000)
Menu ID : 1 (0x1)
Duration : 3 min 48 s
List : 256 (0x100) (HEVC) / 257 (0x101) (AC-3, Korean)
Language : / Korean
Service name : Service01
Service provider : FFmpeg
Service type : digital television
播放器 :
Potplaye/MPC-HC

TS百度云盘
游客,如果您要查看本帖隐藏内容请回复



收藏收藏4 转播转播 分享淘帖 赞 踩
回复

使用道具 举报

2楼(沙发)
发表于 2017-4-18 01:53:43 | 只看该作者
jfgffffiiiiiiiiiiiiiiiiiiii
回复 支持 反对

使用道具 举报

3楼(板凳)
发表于 2017-4-18 03:18:03 | 只看该作者
Number 9
回复

使用道具 举报

4楼(地板)
发表于 2017-4-18 03:55:47 | 只看该作者
yaokkkkkkkkkkkk看看看看
回复 支持 反对

使用道具 举报

5楼
发表于 2017-4-18 05:58:54 | 只看该作者
好资源谢谢分享
回复 支持 反对

使用道具 举报

6楼
发表于 2017-4-18 06:36:28 | 只看该作者
感谢分享
回复

使用道具 举报

7楼
发表于 2017-4-18 06:38:42 | 只看该作者
感謝熱心分享
回复 支持 反对

使用道具 举报

8楼
发表于 2017-4-18 06:57:09 | 只看该作者
播放器 : Potplaye/MPC-HC
回复 支持 反对

使用道具 举报

9楼
发表于 2017-4-18 07:47:55 | 只看该作者
好资源谢谢分享
回复 支持 反对

使用道具 举报

10楼
发表于 2017-4-18 08:05:30 | 只看该作者
挺喜欢这么多妹子的
回复 支持 0 反对 1

使用道具 举报

您需要登录后才可以回帖 登录 | 注册

本版积分规则

手机版|www.tlcwine.com知识百科|小黑屋|标签|Sitemap|联系我们|Archiver| www.tlcwine.com中国论坛  

Copyright © 2013-2017 Comsenz Inc.   All Rights Reserved.

Powered by Discuz! X3.1