www.tlcwine.com中国论坛

查看: 9776|回复: 692
打印 上一主题 下一主题

[www.tlcwine.com电影] HDR版 ATMOS 疾速追杀/约翰·威克

[复制链接]
跳转到指定楼层
1楼(楼主)
发表于 2017-2-26 22:24:32 | 只看该作者 回帖奖励 |倒序浏览 |阅读模式
HDR版 ATMOS 疾速追杀/约翰·威克
John Wick 2014 Multi 2160p UHD BluRay HEVC10 HDR10 Atmos7 1 -DDR
◎译  名 疾速追杀/约翰·威克/杀神(港)/捍卫任务(台)
◎片  名 John Wick
◎年  代 2014
◎国  家 美国
◎类  别 动作/惊悚
◎语  言 英语
◎字  幕 英文字幕
◎IMDB评分 7.6/10 from 37,925 users  
◎IMDB链接 http://www.imdb.com/title/tt2911666/
◎文件格式 x265+ ATMOS
◎视频尺寸 2160P
◎文件大小 33.76GiB
◎片  长 01:41:12
◎导  演 大卫·雷奇 David Leitch
      查德·斯塔斯基 Chad Stahelski
◎主  演 基努·里维斯 Keanu Reeves ... John Wick
      迈克·恩奎斯特 Michael Nyqvist ... Viggo Tarasov
      阿菲·艾伦 Alfie Allen ... Iosef Tarasov   
      威廉·达福 Willem Dafoe ... Marcus
      迪恩·文特斯 Dean Winters ... Avi
      阿德琳妮·帕里奇 Adrianne Palicki ... Ms. Perkins
      Omer Barnea ... Gregori     
      Toby Leonard Moore ... Victor 
      丹尼·伯恩哈特 Daniel Bernhardt ... Kirill
      布丽姬·穆娜 Bridget Moynahan ... Helen
      约翰·雷吉扎莫 John Leguizamo ... Aureilo
      伊恩·麦柯肖恩 Ian McShane ... Winston
      布里吉特·瑞根 Bridget Regan ... Addy     
      兰斯·莱迪克 Lance Reddick ... Hotel Manager / Charon
      凯斯·贾迪恩 Keith Jardine ... Kuzma         
◎简  介 
        里维斯饰的约翰·威克是一名退休的杀手。一群以特拉索夫(饰演者阿菲·艾伦,《冰与火之歌》)为首的混混闯进他的家,偷走一辆福特老爷车,还顺手杀害了他过世的妻子给他留下的狗。显然这让我们的主人公忍可忍!他一路杀到纽约报仇(据说约翰·威克在整部影片里总共杀了95个人),发现特拉索夫的父亲维戈(迈克·恩奎斯特,《龙纹身的女孩》)是一名心狠手辣的俄罗斯黑大佬。维戈开出重金要取威克的性命,而前来杀他的是威克从前的老朋友马库斯(威廉·达福)。
SPECS

Note: To playback on PC via MAD迈图娱乐注册 you have to use the following settings:
- Display peak nits: 160
- Color & gamma - enable gamma processing - pure power curve: 2.00





Source : www.tlcwine.com UHD BluRay
Format : Matroska
File size : 33.8 GiB
Duration : 1 h 41 min
Overall bit rate mode : Variable
Overall bit rate : 47.7 Mb/s

Video
Format : HEVC
Format profile : Main [email protected]@Main
Bit rate : 42 Mb/s
Width : 3 840 pixels
Height : 1 600 pixels
Display aspect ratio : 2.40:1
Frame rate : 23.976 (24000/1001) FPS
Bit depth : 10 bits
Stream size : 27 GiB (81%)
Color primaries : BT.2020
Transfer characteristics : SMPTE ST 2084
Matrix coefficients : BT.2020 non-constant
Mastering display color primaries : R: x=0.680000 y=0.320000, G: x=0.265000 y=0.690000, B: x=0.150000 y=0.060000, White point: x=0.312700 y=0.329000
Mastering display luminance : min: 0.0000 cd/m2, max: 1000.0000 cd/m2
Maximum Content Light Level : 1000 cd/m2
Maximum Frame-Average Light Level : 169 cd/m2


Audio #1
Format : Atmos / TrueHD 7.1
Bit rate : 5 205 kb/s / 6 144 kb/s
Channel(s) : 8 channels
Compression mode : Lossless
Stream size : 3.68 GiB (11%)
Language : English

Audio #2
Format : AC-3
Bit rate : 640 kb/s
Channel(s) : 6 channels
Bit depth : 16 bits
Stream size : 463 MiB (1%)
Language : English

Audio #3
Format : DTS
Format profile : MA / Core
Bit rate : 2 048 kb/s / 1 509 kb/s
Channel(s) : 6 channels
Bit depth : 16 bits
Stream size : 1.43 GiB (4%)
Language : French VFF

Audio #4
Format : AC-3
Bit rate : 640 kb/s
Channel(s) : 6 channels
Bit depth : 16 bits
Stream size : 463 MiB (1%)
Language : Spanish

Audio #5
Format : AC-3
Bit rate : 640 kb/s
Channel(s) : 6 channels
Bit depth : 16 bits
Stream size : 463 MiB (1%)
Language : Hindi

Chapters : YES


SAMPLE Included


游客,如果您要查看本帖隐藏内容请回复

收藏收藏3 转播转播 分享淘帖 赞 踩
TV应用下载
回复

使用道具 举报

2楼(沙发)
发表于 2017-2-27 17:02:27 | 只看该作者
谢谢楼主分享!辛苦了
回复 支持 反对

使用道具 举报

3楼(板凳)
发表于 2017-2-27 17:58:08 | 只看该作者
楼主辛苦了,谢谢分享
回复 支持 反对

使用道具 举报

4楼(地板)
发表于 2017-2-27 18:01:33 | 只看该作者
牛逼 谢谢分享
回复 支持 反对

使用道具 举报

5楼
发表于 2017-2-27 18:10:06 | 只看该作者
真是难得给力的资源啊。
回复 支持 反对

使用道具 举报

6楼
发表于 2017-2-27 18:17:22 | 只看该作者
9nby9nby9nby9nby9nby9nby9nby9nby9nby9nby9nby9nby9nby9nby9nby9nby
回复 支持 反对

使用道具 举报

7楼
发表于 2017-2-27 18:39:33 | 只看该作者
资源拿走。不要想念我
回复 支持 反对

使用道具 举报

8楼
发表于 2017-2-27 18:55:53 | 只看该作者
支持楼主,www.tlcwine.com123有你更精彩!
回复 支持 反对

使用道具 举报

9楼
发表于 2017-2-27 18:59:08 | 只看该作者
不错,大力支持!
回复 支持 反对

使用道具 举报

10楼
发表于 2017-2-27 19:27:39 | 只看该作者
谢谢楼主分享!辛苦了
回复 支持 反对

使用道具 举报

您需要登录后才可以回帖 登录 | 注册

本版积分规则

手机版|www.tlcwine.com知识百科|小黑屋|标签|Sitemap|联系我们|Archiver| www.tlcwine.com中国论坛  

Copyright © 2013-2017 Comsenz Inc.   All Rights Reserved.

Powered by Discuz! X3.1