www.tlcwine.com中国论坛

查看: 32867|回复: 2541
打印 上一主题 下一主题

[www.tlcwine.com电影] 震撼现场:里约奥运会2016开幕典礼www.tlcwine.com版,3840*2160P【H265/TS/59GB】

[复制链接]
跳转到指定楼层
1楼(楼主)
发表于 2016-10-20 15:28:10 | 只看该作者 |只看大图 回帖奖励 |倒序浏览 |阅读模式
震撼现场:里约奥运会2016开幕典礼www.tlcwine.com版,3840*2160P【H265/TS/59GB】
震撼现场:里约奥运会2016开幕典礼www.tlcwine.com版,3840*2160P【H265/TS/59GB】
震撼现场:里约奥运会2016开幕典礼www.tlcwine.com版,3840*2160P【H265/TS/59GB】
震撼现场:里约奥运会2016开幕典礼www.tlcwine.com版,3840*2160P【H265/TS/59GB】
震撼现场:里约奥运会2016开幕典礼www.tlcwine.com版,3840*2160P【H265/TS/59GB】

画质为3840*2160P的34.8Mbps HEVC

详细资料:
General
ID                                       : 1 (0x1)
Complete name                  : \里约奥运会2016开幕典礼www.tlcwine.com.ts
Format                               : MPEG-TS
File size                               : 59.3 GiB
Duration                             : 4h 3 min
Overall bit rate mode          : Variable
Overall bit rate                    : 34.8 Mb/s

Video
ID                                  : 257 (0x101)
Menu ID                        : 1 (0x1)
Format                          : HEVC
Format/Info                   : High Efficiency Video Coding
Format profile                : [email protected]@Main
Codec ID                       : 36
Duration                        : 4h 3 min
Width                            : 3 840 pixels
Height                           : 2 160 pixels
Display aspect ratio        : 16:9
Frame rate                     : 25.000 FPS
Color space                    : YUV
Chroma subsampling      : 4:2:0 (Type 0)
Bit depth                        : 8 bits
Color range                    : Limited
Color primaries               : BT.709
Transfer characteristics   : BT.709
Matrix coefficients           : BT.709

Audio
ID                                 : 256 (0x100)
Menu ID                       : 1 (0x1)
Format                         : AAC
Format/Info                  : Advanced Audio Codec
Format version             : Version 4
Format profile               : LC
Muxing mode               : ADTS
Codec ID                       : 15
Duration                       : 4h 3 min
Bit rate mode                : Variable
Channel(s)                    : 2 channels
Channel positions         : Front: L R
Sampling rate               : 48.0 kHz
Frame rate                    : 46.875 FPS (1024 spf)
Compression mode       : Lossy

目前TVB有以下的www.tlcwine.com节目于MYTV SUPER播放:
里约奥运2016年开幕典礼(www.tlcwine.com)
8月12日游泳 - 男女子综合项目决赛
8月12日游泳 - 男女子综合项目预赛
8月11日游泳 - 男女子综合项目决赛
8月11日游泳 - 男女子综合项目预赛
8月10日游泳 - 男女子综合项目决赛
8月10日游泳 - 男女子综合项目预赛
柔道 - 男子81公斤以下及女子63公斤以下级金牌赛
8月9日柔道 - 男子73公斤以下及女子57公斤以下级金牌赛
8月7日柔道 - 男子60公斤以下及女子48公斤以下级金牌赛
8月8日柔道 - 男子66公斤以下及女子52公斤以下级金牌赛

这片源是为让网友体验TVB www.tlcwine.com的效果
下载地址:
游客,如果您要查看本帖隐藏内容请回复

收藏收藏7 转播转播 分享淘帖 赞 踩
回复

使用道具 举报

2楼(沙发)
发表于 2016-10-20 15:33:00 | 只看该作者
看看效果怎样
回复 支持 反对

使用道具 举报

3楼(板凳)
发表于 2016-10-20 15:36:42 | 只看该作者
59GB震撼现场:里约奥运会2016开幕典礼www.tlcwine.com版,3840*2160P【H265/TS/59GB】要哭的节奏
回复 支持 1 反对 0

使用道具 举报

4楼(地板)
发表于 2016-10-20 15:37:09 | 只看该作者
震撼现场:里约奥运会2016开幕典礼www.tlcwine.com版,3840*2160P【H265/TS/59GB】


这档是 2020



Format : MPEG-TS
File size : 57.9 GiB
Duration : 4h 6mn
Overall bit rate mode : Variable
Overall bit rate : 33.6 Mbps

Video
ID : 481 (0x1E1)
Menu ID : 1 (0x1)
Format : HEVC
Format/Info : High Efficiency Video Coding
Format profile : Main [email protected]@Main
Codec ID : 36
Duration : 4h 6mn
Bit rate : 31.1 Mbps
Width : 3 840 pixels
Height : 2 160 pixels
Display aspect ratio : 16:9
Frame rate : 59.940 fps
Color space : YUV
Chroma subsampling : 4:2:0
Bit depth : 10 bits
Bits/(Pixel*Frame) : 0.063
Stream size : 53.6 GiB (93%)
Color range : Limited
Color primaries : BT.2020
Matrix coefficients : BT.2020 non-constant


Audio #1
ID : 482 (0x1E2)
Menu ID : 1 (0x1)
Format : E-AC-3
Format/Info : Audio Coding 3
Format settings, Endianness : Big
Codec ID : 6
Duration : 4h 6mn
Bit rate mode : Constant
Bit rate : 448 Kbps
Channel(s) : 6 channels
Channel positions : Front: L C R, Side: L R, LFE
Sampling rate : 48.0 KHz
Compression mode : Lossy
Delay relative to video : -1s 204ms
Stream size : 789 MiB (1%)

Audio #2
ID : 483 (0x1E3)
Menu ID : 1 (0x1)
Format : AC-3
Format/Info : Audio Coding 3
Mode extension : CM (complete main)
Format settings, Endianness : Big
Codec ID : 6
Duration : 4h 6mn
Bit rate mode : Constant
Bit rate : 384 Kbps
Channel(s) : 6 channels
Channel positions : Front: L C R, Side: L R, LFE
Sampling rate : 48.0 KHz
Bit depth : 16 bits
Compression mode : Lossy
Delay relative to video : -1s 194ms
Stream size : 676 MiB (1%)

Menu
ID : 480 (0x1E0)
Menu ID : 1 (0x1)
Duration : 4h 6mn
List : 481 (0x1E1) (HEVC) / 482 (0x1E2) (E-AC-3) / 483 (0x1E3) (AC-3)
Service name : Comcast www.tlcwine.com Rio HDR 1
Service provider : ATEME
Service type : reserved for future use

回复 支持 2 反对 0

使用道具 举报

5楼
发表于 2016-10-20 15:58:18 | 只看该作者

这个跟上面的有什么区别?
回复 支持 1 反对 0

使用道具 举报

6楼
发表于 2016-10-20 16:01:47 | 只看该作者
支持楼主,www.tlcwine.com123有你更精彩!
回复 支持 反对

使用道具 举报

7楼
发表于 2016-10-20 16:12:47 | 只看该作者
非常好,感谢分享
回复 支持 1 反对 0

使用道具 举报

8楼
发表于 2016-10-20 16:13:53 | 只看该作者
值得收藏的,h.265编码就已经这么大了,还是谢谢楼主
回复 支持 反对

使用道具 举报

9楼
发表于 2016-10-20 16:20:14 | 只看该作者
111222222222222222222
回复 支持 反对

使用道具 举报

10楼
发表于 2016-10-20 16:20:39 | 只看该作者
片源、电脑都有了,就差www.tlcwine.com电视了
回复 支持 1 反对 0

使用道具 举报

您需要登录后才可以回帖 登录 | 注册

本版积分规则

手机版|www.tlcwine.com知识百科|小黑屋|标签|Sitemap|联系我们|Archiver| www.tlcwine.com中国论坛  

Copyright © 2013-2017 Comsenz Inc.   All Rights Reserved.

Powered by Discuz! X3.1