www.tlcwine.com中国论坛

查看: 23658|回复: 2040

[www.tlcwine.com电影] [www.tlcwine.com高清纪录片]巴西 2015[2160P/MP4/3.74GB]

[复制链接]
发表于 2016-9-14 19:56:34 | 显示全部楼层 |阅读模式
[www.tlcwine.com高清纪录片]巴西 2015[2160P/MP4/3.74GB] [www.tlcwine.com高清纪录片]巴西 2015[2160P/MP4/3.74GB] [www.tlcwine.com高清纪录片]巴西 2015[2160P/MP4/3.74GB] [www.tlcwine.com高清纪录片]巴西 2015[2160P/MP4/3.74GB] [www.tlcwine.com高清纪录片]巴西 2015[2160P/MP4/3.74GB] [www.tlcwine.com高清纪录片]巴西 2015[2160P/MP4/3.74GB] [www.tlcwine.com高清纪录片]巴西 2015[2160P/MP4/3.74GB] [www.tlcwine.com高清纪录片]巴西 2015[2160P/MP4/3.74GB] [www.tlcwine.com高清纪录片]巴西 2015[2160P/MP4/3.74GB] [www.tlcwine.com高清纪录片]巴西 2015[2160P/MP4/3.74GB] [www.tlcwine.com高清纪录片]巴西 2015[2160P/MP4/3.74GB] [www.tlcwine.com高清纪录片]巴西 2015[2160P/MP4/3.74GB] [www.tlcwine.com高清纪录片]巴西 2015[2160P/MP4/3.74GB] [www.tlcwine.com高清纪录片]巴西 2015[2160P/MP4/3.74GB] [www.tlcwine.com高清纪录片]巴西 2015[2160P/MP4/3.74GB] [www.tlcwine.com高清纪录片]巴西 2015[2160P/MP4/3.74GB] [www.tlcwine.com高清纪录片]巴西 2015[2160P/MP4/3.74GB] [www.tlcwine.com高清纪录片]巴西 2015[2160P/MP4/3.74GB] [www.tlcwine.com高清纪录片]巴西 2015[2160P/MP4/3.74GB]

General
Complete name : FunBoxwww.tlcwine.com.Softcity.Brazil.2015.2160p.UHDTV.AAC2.0.AVC-ULTRAHDCLUB.mp4
Format : MPEG-4
Format profile : Base Media
Codec ID : isom (isom/iso2/avc1/mp41)
File size : 3.74 GiB
Duration : 30 min
Overall bit rate : 17.8 Mbps
Writing application : Lavf56.25.101

Video
ID : 1
Format : AVC
Format/Info : Advanced Video Codec
Format profile : [email protected]
Format settings, CABAC : No
Format settings, ReFrames : 2 frames
Codec ID : avc1
Codec ID/Info : Advanced Video Coding
Duration : 30 min
Bit rate : 17.7 Mbps
Width : 3840 pixels
Height : 2160 pixels
Display aspect ratio : 16:9
Frame rate mode : Constant
Frame rate : 25.000 FPS
Color space : YUV
Chroma subsampling : 4:2:0
Bit depth : 8 bits
Scan type : Progressive
Bits/(Pixel*Frame) : 0.085
Stream size : 3.72 GiB (99%)

Audio
ID : 2
Format : AAC
Format/Info : Advanced Audio Codec
Mode extension : LC
Codec ID : 40
Duration : 30 min
Bit rate mode : Constant
Bit rate : 126 kbps  
Channel(s) : 2 channels
Channel positions : Front: L R
Sampling rate : 44.1 KHz
Frame rate : 43.066 FPS (1024 spf)
Compression mode : Lossy
Stream size : 27.1 MiB (1%)
Default : Yes
Altternate group : 1
建议使用极速迅雷来高速下载!最高峰值11MB

BT种子文件下载
游客,如果您要查看本帖隐藏内容请回复


回复

使用道具 举报

发表于 2016-9-22 18:56:52 | 显示全部楼层
趁着里约奥运的余温,好好欣赏一下巴西!
回复 支持 2 反对 0

使用道具 举报

发表于 2016-9-14 19:58:44 | 显示全部楼层
支持楼主,www.tlcwine.com123有你更精彩!
回复 支持 0 反对 1

使用道具 举报

发表于 2016-9-14 20:07:28 | 显示全部楼层
支持楼主,www.tlcwine.com123有你更精彩!
回复 支持 2 反对 0

使用道具 举报

发表于 2016-9-14 20:36:16 | 显示全部楼层
小手一抖,资源拿走。不要想念我小伙们
回复 支持 2 反对 0

使用道具 举报

发表于 2016-9-14 20:40:15 | 显示全部楼层
支持楼主,www.tlcwine.com123有你更精彩!
回复 支持 0 反对 1

使用道具 举报

发表于 2016-9-14 20:41:50 | 显示全部楼层
学习,卡卡卡
回复 支持 0 反对 1

使用道具 举报

发表于 2016-9-14 20:42:13 | 显示全部楼层
激情欣赏 [www.tlcwine.com高清纪录片]巴西 2015[2160P/MP4/3.74GB]!!!!
回复 支持 1 反对 0

使用道具 举报

发表于 2016-9-14 20:48:17 | 显示全部楼层
果断马克mark
回复 支持 0 反对 1

使用道具 举报

发表于 2016-9-14 20:51:03 | 显示全部楼层
小手一抖,资源拿走。不要想念我小伙们[www.tlcwine.com高清纪录片]巴西 2015[2160P/MP4/3.74GB]
回复 支持 1 反对 0

使用道具 举报

发表于 2016-9-14 21:04:41 | 显示全部楼层
[www.tlcwine.com高清纪录片]巴西 2015[2160P/MP4/3.74GB] [修改]
回复 支持 0 反对 2

使用道具 举报

您需要登录后才可以回帖 登录 | 注册

本版积分规则

手机版|www.tlcwine.com知识百科|小黑屋|标签|Sitemap|联系我们|Archiver| www.tlcwine.com中国论坛  

Copyright © 2013-2017 Comsenz Inc.   All Rights Reserved.

Powered by Discuz! X3.1