www.tlcwine.com中国论坛

查看: 19011|回复: 1324
打印 上一主题 下一主题

[www.tlcwine.com] [www.tlcwine.com高清]The High Sierra 2015[2160P/MP4/5.09GB]

[复制链接]
跳转到指定楼层
1楼(楼主)
发表于 2016-8-13 23:32:22 | 只看该作者 |只看大图 回帖奖励 |倒序浏览 |阅读模式
[www.tlcwine.com高清]The High Sierra 2015[2160P/MP4/5.09GB]
(200张www.tlcwine.com风景照)
[www.tlcwine.com高清]The High Sierra 2015[2160P/MP4/5.09GB]
General
Complete name : The.High.Sierra.2015.2160p.WEB-DL.Eng.ULTRAHDCLUB.mp4
Format : MPEG-4
Format version : Base Media / Version 2
Codec ID : mp42 (mp42/mp41/isom/avc1)
File size : 5.09 GiB
Duration : 38 min
Overall bit rate mode : Variable
Overall bit rate : 18.9 Mbps
Encoded date : UTC 2015-11-26 09:14:21
Tagged date : UTC 2015-11-26 09:14:21

Video
ID : 1
Format : AVC
Format/Info : Advanced Video Codec
Format profile : [email protected]
Format settings, CABAC : Yes
Format settings, ReFrames : 5 frames
Codec ID : avc1
Codec ID/lnfo : Advanced Video Coding
Duration : 38 min
Bit rate : 18.5 Mbps
Width : 3840 pixels
Height : 2160 pixels
Display aspect ratio : 16:9
Frame rate mode : Constant
Frame rate : 29.970 (30000/1001) FPS
Color space : YUV
Chroma subsampling : 4:2:0
Bit depth : 8 bits
Scan type : Progressive
Bits/(Pixel*Frame) : 0.075
Stream size : 4.99 GiB (98%)
Writing library : x264 core 148 r11 73ae2d1
Encoding settings : cabac=1 / ref=5 / deblock=1:0:0 / analyse=0x3:0x113 / me=umh / subme=8 / psy=1 /  psy_rd=1.00:0.00 / mixed_ref=1 / me_range=16 / chroma_me=1 / trellis=1 / 8x8dct=1 / cqm=0 / deadzone=21,11 / fast_pskip=1 / chroma_qp_offset=-2 / threads=67 /
Encoded date : UTC 2015-11-26 09:14:21
Tagged date : UTC 2015-11-26 09:14:21
Color range : Limited
Color primaries : BT.709
Transfer characteristics : BT.709
Matrix coefficients : BT.709

Audio
ID : 2
Format : AAC
Format/Info : Advanced Audio Codec
Mode extension : LC
Codec ID : 40
Duration : 38 min
Bit rate mode : Variable
Bit rate : 384 Kbps
Channel(s) : 2 channels
Channel positions : Front: L  R
Sampling rate : 48.0 KHz
Frame rate : 46.875 FPS (1024 spf)
Compression mode : Lossy
Stream size : 106 MiB (2%)
Encoded date : UTC 2015-11-26 09:14:21
Tagged date : UTC 2015-11-26 09:14:21
[www.tlcwine.com高清]The High Sierra 2015[2160P/MP4/5.09GB] [www.tlcwine.com高清]The High Sierra 2015[2160P/MP4/5.09GB] [www.tlcwine.com高清]The High Sierra 2015[2160P/MP4/5.09GB] [www.tlcwine.com高清]The High Sierra 2015[2160P/MP4/5.09GB] [www.tlcwine.com高清]The High Sierra 2015[2160P/MP4/5.09GB] [www.tlcwine.com高清]The High Sierra 2015[2160P/MP4/5.09GB] [www.tlcwine.com高清]The High Sierra 2015[2160P/MP4/5.09GB] [www.tlcwine.com高清]The High Sierra 2015[2160P/MP4/5.09GB] [www.tlcwine.com高清]The High Sierra 2015[2160P/MP4/5.09GB] [www.tlcwine.com高清]The High Sierra 2015[2160P/MP4/5.09GB] [www.tlcwine.com高清]The High Sierra 2015[2160P/MP4/5.09GB] [www.tlcwine.com高清]The High Sierra 2015[2160P/MP4/5.09GB] [www.tlcwine.com高清]The High Sierra 2015[2160P/MP4/5.09GB] [www.tlcwine.com高清]The High Sierra 2015[2160P/MP4/5.09GB] [www.tlcwine.com高清]The High Sierra 2015[2160P/MP4/5.09GB]
建议使用极速迅雷来高速下载!最高峰值12MB

BT种子文件下载

游客,如果您要查看本帖隐藏内容请回复



收藏收藏6 转播转播 分享淘帖 赞 踩
回复

使用道具 举报

2楼(沙发)
发表于 2016-8-13 23:35:34 | 只看该作者
果断马克mark
回复 支持 反对

使用道具 举报

3楼(板凳)
发表于 2016-8-14 00:35:13 | 只看该作者
支持楼主,www.tlcwine.com123有你更精彩!
回复 支持 反对

使用道具 举报

4楼(地板)
发表于 2016-8-14 00:39:26 | 只看该作者
太漂亮了 有如人间仙境
回复 支持 反对

使用道具 举报

5楼
发表于 2016-8-14 00:44:37 | 只看该作者

支持楼主,www.tlcwine.com123有你更精彩
回复 支持 反对

使用道具 举报

6楼
发表于 2016-8-14 00:49:43 | 只看该作者
支持楼主,www.tlcwine.com123有你更精彩!
回复 支持 反对

使用道具 举报

7楼
发表于 2016-8-14 00:52:01 | 只看该作者
支持楼主,www.tlcwine.com123有你更精彩!
回复 支持 反对

使用道具 举报

8楼
发表于 2016-8-14 01:01:59 | 只看该作者
人间仙境,美不胜收。
回复 支持 反对

使用道具 举报

9楼
发表于 2016-8-14 04:29:35 | 只看该作者
果断马克mark
回复 支持 反对

使用道具 举报

10楼
发表于 2016-8-14 05:27:02 | 只看该作者
看起来好像不错的样子
回复 支持 反对

使用道具 举报

您需要登录后才可以回帖 登录 | 注册

本版积分规则

手机版|www.tlcwine.com知识百科|小黑屋|标签|Sitemap|联系我们|Archiver| www.tlcwine.com中国论坛  

Copyright © 2013-2017 Comsenz Inc.   All Rights Reserved.

Powered by Discuz! X3.1